  0
SECTION
  2
HEADER
  9
$ACADVER
  1
AC1015
  9
$ACADMAINTVER
 70
     6
  9
$DWGCODEPAGE
  3
ANSI_1252
  9
$INSBASE
 10
0.0
 20
0.0
 30
0.0
  9
$EXTMIN
 10
0.0
 20
0.0
 30
0.0
  9
$EXTMAX
 10
279.4
 20
215.9
 30
0.0
  9
$LIMMIN
 10
0.0
 20
0.0
  9
$LIMMAX
 10
0.0
 20
0.0
  9
$ORTHOMODE
 70
     0
  9
$REGENMODE
 70
     1
  9
$FILLMODE
 70
     1
  9
$QTEXTMODE
 70
     0
  9
$MIRRTEXT
 70
     1
  9
$LTSCALE
 40
1.0
  9
$ATTMODE
 70
     1
  9
$TEXTSIZE
 40
3.5
  9
$TRACEWID
 40
1.0
  9
$TEXTSTYLE
  7
Standard
  9
$CLAYER
  8
0
  9
$CELTYPE
  6
ByLayer
  9
$CECOLOR
 62
   256
  9
$CELTSCALE
 40
1.0
  9
$DISPSILH
 70
     0
  9
$DIMSCALE
 40
1.0
  9
$DIMASZ
 40
3.0
  9
$DIMEXO
 40
1.0
  9
$DIMDLI
 40
3.75
  9
$DIMRND
 40
0.0
  9
$DIMDLE
 40
0.0
  9
$DIMEXE
 40
1.0
  9
$DIMTP
 40
0.0
  9
$DIMTM
 40
0.0
  9
$DIMTXT
 40
8.8194444444
  9
$DIMCEN
 40
2.5
  9
$DIMTSZ
 40
0.0
  9
$DIMTOL
 70
     0
  9
$DIMLIM
 70
     0
  9
$DIMTIH
 70
     1
  9
$DIMTOH
 70
     1
  9
$DIMSE1
 70
     0
  9
$DIMSE2
 70
     0
  9
$DIMTAD
 70
     1
  9
$DIMZIN
 70
     0
  9
$DIMBLK
  1

  9
$DIMASO
 70
     1
  9
$DIMSHO
 70
     1
  9
$DIMPOST
  1

  9
$DIMAPOST
  1

  9
$DIMALT
 70
     0
  9
$DIMALTD
 70
     3
  9
$DIMALTF
 40
0.0393700787
  9
$DIMLFAC
 40
0.5
  9
$DIMTOFL
 70
     1
  9
$DIMTVP
 40
0.0
  9
$DIMTIX
 70
     0
  9
$DIMSOXD
 70
     0
  9
$DIMSAH
 70
     0
  9
$DIMBLK1
  1

  9
$DIMBLK2
  1

  9
$DIMSTYLE
  2
ISO-25
  9
$DIMCLRD
 70
     0
  9
$DIMCLRE
 70
     0
  9
$DIMCLRT
 70
     0
  9
$DIMTFAC
 40
1.0
  9
$DIMGAP
 40
1.524
  9
$DIMJUST
 70
     0
  9
$DIMSD1
 70
     0
  9
$DIMSD2
 70
     0
  9
$DIMTOLJ
 70
     0
  9
$DIMTZIN
 70
     0
  9
$DIMALTZ
 70
     0
  9
$DIMALTTZ
 70
     0
  9
$DIMUPT
 70
     0
  9
$DIMDEC
 70
     2
  9
$DIMTDEC
 70
     2
  9
$DIMALTU
 70
     2
  9
$DIMALTTD
 70
     3
  9
$DIMTXSTY
  7
Standard
  9
$DIMAUNIT
 70
     0
  9
$DIMADEC
 70
     0
  9
$DIMALTRND
 40
0.0
  9
$DIMAZIN
 70
     0
  9
$DIMDSEP
 70
    44
  9
$DIMATFIT
 70
     3
  9
$DIMFRAC
 70
     0
  9
$DIMLDRBLK
  1

  9
$DIMLUNIT
 70
     2
  9
$DIMLWD
 70
    -2
  9
$DIMLWE
 70
    -2
  9
$DIMTMOVE
 70
     0
  9
$LUNITS
 70
     2
  9
$LUPREC
 70
     2
  9
$SKETCHINC
 40
1.0
  9
$FILLETRAD
 40
10.0
  9
$AUNITS
 70
     0
  9
$AUPREC
 70
     0
  9
$MENU
  1
.
  9
$ELEVATION
 40
0.0
  9
$PELEVATION
 40
0.0
  9
$THICKNESS
 40
0.0
  9
$LIMCHECK
 70
     0
  9
$CHAMFERA
 40
10.0
  9
$CHAMFERB
 40
10.0
  9
$CHAMFERC
 40
20.0
  9
$CHAMFERD
 40
0.0
  9
$SKPOLY
 70
     0
  9
$TDCREATE
 40
2454503.487615637
  9
$TDUCREATE
 40
2454503.44594897
  9
$TDUPDATE
 40
2454503.487615648
  9
$TDUUPDATE
 40
2454503.445948982
  9
$TDINDWG
 40
0.0000000116
  9
$TDUSRTIMER
 40
0.0000000116
  9
$USRTIMER
 70
     1
  9
$ANGBASE
 50
0.0
  9
$ANGDIR
 70
     0
  9
$PDMODE
 70
     0
  9
$PDSIZE
 40
-1.0
  9
$PLINEWID
 40
0.0
  9
$SPLFRAME
 70
     0
  9
$SPLINETYPE
 70
     6
  9
$SPLINESEGS
 70
     8
  9
$HANDSEED
  5
175
  9
$SURFTAB1
 70
     6
  9
$SURFTAB2
 70
     6
  9
$SURFTYPE
 70
     6
  9
$SURFU
 70
     6
  9
$SURFV
 70
     6
  9
$UCSBASE
  2

  9
$UCSNAME
  2

  9
$UCSORG
 10
0.0
 20
0.0
 30
0.0
  9
$UCSXDIR
 10
1.0
 20
0.0
 30
0.0
  9
$UCSYDIR
 10
0.0
 20
1.0
 30
0.0
  9
$UCSORTHOREF
  2

  9
$UCSORTHOVIEW
 70
     0
  9
$UCSORGTOP
 10
0.0
 20
0.0
 30
0.0
  9
$UCSORGBOTTOM
 10
0.0
 20
0.0
 30
0.0
  9
$UCSORGLEFT
 10
0.0
 20
0.0
 30
0.0
  9
$UCSORGRIGHT
 10
0.0
 20
0.0
 30
0.0
  9
$UCSORGFRONT
 10
0.0
 20
0.0
 30
0.0
  9
$UCSORGBACK
 10
0.0
 20
0.0
 30
0.0
  9
$PUCSBASE
  2

  9
$PUCSNAME
  2

  9
$PUCSORG
 10
0.0
 20
0.0
 30
0.0
  9
$PUCSXDIR
 10
1.0
 20
0.0
 30
0.0
  9
$PUCSYDIR
 10
0.0
 20
1.0
 30
0.0
  9
$PUCSORTHOREF
  2

  9
$PUCSORTHOVIEW
 70
     0
  9
$PUCSORGTOP
 10
0.0
 20
0.0
 30
0.0
  9
$PUCSORGBOTTOM
 10
0.0
 20
0.0
 30
0.0
  9
$PUCSORGLEFT
 10
0.0
 20
0.0
 30
0.0
  9
$PUCSORGRIGHT
 10
0.0
 20
0.0
 30
0.0
  9
$PUCSORGFRONT
 10
0.0
 20
0.0
 30
0.0
  9
$PUCSORGBACK
 10
0.0
 20
0.0
 30
0.0
  9
$USERI1
 70
     0
  9
$USERI2
 70
     0
  9
$USERI3
 70
     0
  9
$USERI4
 70
     0
  9
$USERI5
 70
     0
  9
$USERR1
 40
0.0
  9
$USERR2
 40
0.0
  9
$USERR3
 40
0.0
  9
$USERR4
 40
0.0
  9
$USERR5
 40
0.0
  9
$WORLDVIEW
 70
     1
  9
$SHADEDGE
 70
     3
  9
$SHADEDIF
 70
    70
  9
$TILEMODE
 70
     1
  9
$MAXACTVP
 70
    64
  9
$PINSBASE
 10
0.0
 20
0.0
 30
0.0
  9
$PLIMCHECK
 70
     0
  9
$PEXTMIN
 10
1.0000000000E+20
 20
1.0000000000E+20
 30
1.0000000000E+20
  9
$PEXTMAX
 10
-1.0000000000E+20
 20
-1.0000000000E+20
 30
-1.0000000000E+20
  9
$PLIMMIN
 10
0.0
 20
0.0
  9
$PLIMMAX
 10
420.0
 20
297.0
  9
$UNITMODE
 70
     0
  9
$VISRETAIN
 70
     1
  9
$PLINEGEN
 70
     0
  9
$PSLTSCALE
 70
     1
  9
$TREEDEPTH
 70
  3020
  9
$CMLSTYLE
  2
Standard
  9
$CMLJUST
 70
     0
  9
$CMLSCALE
 40
20.0
  9
$PROXYGRAPHICS
 70
     1
  9
$MEASUREMENT
 70
     1
  9
$CELWEIGHT
370
    -1
  9
$ENDCAPS
280
     0
  9
$JOINSTYLE
280
     0
  9
$LWDISPLAY
290
     1
  9
$INSUNITS
 70
     4
  9
$HYPERLINKBASE
  1

  9
$STYLESHEET
  1

  9
$XEDIT
290
     1
  9
$CEPSNTYPE
380
     0
  9
$PSTYLEMODE
290
     1
  9
$FINGERPRINTGUID
  2
{CC7DBB8F-514D-43C3-AB14-F7D6D33812F4}
  9
$VERSIONGUID
  2
{FAEB1C32-E019-11D5-929B-00C0DF256EC4}
  9
$EXTNAMES
290
     1
  9
$PSVPSCALE
 40
0.0
  9
$OLESTARTUP
290
     0
  0
ENDSEC
  0
SECTION
  2
CLASSES
  0
CLASS
  1
ACDBDICTIONARYWDFLT
  2
AcDbDictionaryWithDefault
  3
ObjectDBX Classes
 90
        0
280
     0
281
     0
  0
CLASS
  1
ACDBPLACEHOLDER
  2
AcDbPlaceHolder
  3
ObjectDBX Classes
 90
        0
280
     0
281
     0
  0
CLASS
  1
LAYOUT
  2
AcDbLayout
  3
ObjectDBX Classes
 90
        0
280
     0
281
     0
  0
ENDSEC
  0
SECTION
  2
TABLES
  0
TABLE
  2
VPORT
  5
8
330
0
100
AcDbSymbolTable
 70
     1
  0
VPORT
  5
29
330
8
100
AcDbSymbolTableRecord
100
AcDbViewportTableRecord
  2
*Active
 70
     0
 10
0.0
 20
0.0
 11
1.0
 21
1.0
 12
139.7
 22
107.95
 13
0.0
 23
0.0
 14
10.0
 24
10.0
 15
10.0
 25
10.0
 16
0.0
 26
0.0
 36
1.0
 17
0.0
 27
0.0
 37
0.0
 40
215.9
 41
1.2941176471
 42
50.0
 43
0.0
 44
0.0
 50
0.0
 51
0.0
 71
     0
 72
  2000
 73
     1
 74
     3
 75
     0
 76
     0
 77
     0
 78
     0
281
     0
 65
     1
110
0.0
120
0.0
130
0.0
111
1.0
121
0.0
131
0.0
112
0.0
122
1.0
132
0.0
 79
     0
146
0.0
  0
ENDTAB
  0
TABLE
  2
LTYPE
  5
5
330
0
100
AcDbSymbolTable
 70
     6
  0
LTYPE
  5
14
330
5
100
AcDbSymbolTableRecord
100
AcDbLinetypeTableRecord
  2
ByBlock
 70
     0
  3

 72
    65
 73
     0
 40
0.0
  0
LTYPE
  5
15
330
5
100
AcDbSymbolTableRecord
100
AcDbLinetypeTableRecord
  2
ByLayer
 70
     0
  3

 72
    65
 73
     0
 40
0.0
  0
LTYPE
  5
16
330
5
100
AcDbSymbolTableRecord
100
AcDbLinetypeTableRecord
  2
Continuous
 70
     0
  3
Solid line
 72
    65
 73
     0
 40
0.0
  0
LTYPE
  5
2A
330
5
100
AcDbSymbolTableRecord
100
AcDbLinetypeTableRecord
  2
HIDDEN
 70
     0
  3
Hidden __ __ __ __ __ __ __ __ __ __ __ __ __ __
 72
    65
 73
     2
 40
1.905
 49
1.27
 74
     0
 49
-0.635
 74
     0
  0
LTYPE
  5
2B
330
5
100
AcDbSymbolTableRecord
100
AcDbLinetypeTableRecord
  2
PHANTOM
 70
     0
  3
Phantom ______  __  __  ______  __  __  ______
 72
    65
 73
     6
 40
12.7
 49
6.35
 74
     0
 49
-1.27
 74
     0
 49
1.27
 74
     0
 49
-1.27
 74
     0
 49
1.27
 74
     0
 49
-1.27
 74
     0
  0
LTYPE
  5
2C
330
5
100
AcDbSymbolTableRecord
100
AcDbLinetypeTableRecord
  2
CENTER
 70
     0
  3
Center ____ _ ____ _ ____ _ ____ _ ____ _ ____
 72
    65
 73
     4
 40
10.16
 49
6.35
 74
     0
 49
-1.27
 74
     0
 49
1.27
 74
     0
 49
-1.27
 74
     0
  0
LTYPE
  5
2D
330
5
100
AcDbSymbolTableRecord
100
AcDbLinetypeTableRecord
  2
CENTERX2
 70
     0
  3
Center (2x) ________  __  ________  __  _____
 72
    65
 73
     4
 40
20.32
 49
12.7
 74
     0
 49
-2.54
 74
     0
 49
2.54
 74
     0
 49
-2.54
 74
     0
  0
LTYPE
  5
2E
330
5
100
AcDbSymbolTableRecord
100
AcDbLinetypeTableRecord
  2
DOT2
 70
     0
  3
Dot (.5x) ........................................
 72
    65
 73
     2
 40
0.635
 49
0.0
 74
     0
 49
-0.635
 74
     0
  0
ENDTAB
  0
TABLE
  2
LAYER
  5
2
330
0
100
AcDbSymbolTable
 70
     1
  0
LAYER
  5
10
330
2
100
AcDbSymbolTableRecord
100
AcDbLayerTableRecord
  2
0
 70
     0
 62
     7
  6
Continuous
370
    -3
390
F
  0
ENDTAB
  0
TABLE
  2
STYLE
  5
3
330
0
100
AcDbSymbolTable
 70
     2
  0
STYLE
  5
11
330
3
100
AcDbSymbolTableRecord
100
AcDbTextStyleTableRecord
  2
Standard
 70
     0
 40
0.0
 41
1.0
 50
0.0
 71
     0
 42
2.5
  3
txt
  4

  0
STYLE
  5
41
330
3
100
AcDbSymbolTableRecord
100
AcDbTextStyleTableRecord
  2
SLDTEXTSTYLE0
 70
     0
 40
0.0
 41
0.75
 50
0.0
 71
     0
 42
0.2
  3
TXT
  4

  0
ENDTAB
  0
TABLE
  2
VIEW
  5
6
330
0
100
AcDbSymbolTable
 70
     0
  0
ENDTAB
  0
TABLE
  2
UCS
  5
7
330
0
100
AcDbSymbolTable
 70
     0
  0
ENDTAB
  0
TABLE
  2
APPID
  5
9
330
0
100
AcDbSymbolTable
 70
     1
  0
APPID
  5
12
330
9
100
AcDbSymbolTableRecord
100
AcDbRegAppTableRecord
  2
ACAD
 70
     0
  0
ENDTAB
  0
TABLE
  2
DIMSTYLE
  5
A
330
0
100
AcDbSymbolTable
 70
     4
100
AcDbDimStyleTable
  0
DIMSTYLE
105
27
330
A
100
AcDbSymbolTableRecord
100
AcDbDimStyleTableRecord
  2
ISO-25
 70
     0
 41
2.5
 42
0.625
 43
3.75
 44
1.25
 73
     0
 74
     0
 77
     1
 78
     8
140
2.5
141
2.5
143
0.0393700787
147
0.625
171
     3
172
     1
271
     2
272
     2
274
     3
278
    44
283
     0
284
     8
340
11
  0
DIMSTYLE
105
42
102
{ACAD_REACTORS
330
40
102
}
330
A
100
AcDbSymbolTableRecord
100
AcDbDimStyleTableRecord
  2
SLDDIMSTYLE0
 70
     0
 41
3.0
 44
0.0
 73
     0
 74
     0
 77
     1
 78
    12
140
6.6145833333
147
1.6536458333
173
     1
271
     2
272
     2
284
    12
340
41
  0
DIMSTYLE
105
50
102
{ACAD_REACTORS
330
4F
330
5C
330
83
330
8F
330
9B
330
A5
330
B1
330
E3
330
EF
330
FB
330
107
330
113
330
149
330
153
330
15F
330
16B
102
}
330
A
100
AcDbSymbolTableRecord
100
AcDbDimStyleTableRecord
  2
SLDDIMSTYLE1
 70
     0
 41
3.0
 44
0.0
 73
     0
 74
     0
 77
     1
 78
    12
140
6.6145833333
147
1.6536458333
173
     1
271
     2
272
     2
284
    12
340
41
  0
DIMSTYLE
105
BE
330
A
100
AcDbSymbolTableRecord
100
AcDbDimStyleTableRecord
  2
SLDDIMSTYLE2
 70
     0
 41
3.0
 44
0.0
140
3.0
147
0.75
173
     1
271
     0
272
     0
340
11
  0
ENDTAB
  0
TABLE
  2
BLOCK_RECORD
  5
1
330
0
100
AcDbSymbolTable
 70
    20
  0
BLOCK_RECORD
  5
1F
330
1
100
AcDbSymbolTableRecord
100
AcDbBlockTableRecord
  2
*Model_Space
340
22
  0
BLOCK_RECORD
  5
1B
330
1
100
AcDbSymbolTableRecord
100
AcDbBlockTableRecord
  2
*Paper_Space
340
1E
  0
BLOCK_RECORD
  5
23
330
1
100
AcDbSymbolTableRecord
100
AcDbBlockTableRecord
  2
*Paper_Space0
340
26
  0
BLOCK_RECORD
  5
43
330
1
100
AcDbSymbolTableRecord
100
AcDbBlockTableRecord
  2
*D1
340
0
  0
BLOCK_RECORD
  5
51
330
1
100
AcDbSymbolTableRecord
100
AcDbBlockTableRecord
  2
*D2
340
0
  0
BLOCK_RECORD
  5
5D
330
1
100
AcDbSymbolTableRecord
100
AcDbBlockTableRecord
  2
*D3
340
0
  0
BLOCK_RECORD
  5
84
330
1
100
AcDbSymbolTableRecord
100
AcDbBlockTableRecord
  2
*D4
340
0
  0
BLOCK_RECORD
  5
90
330
1
100
AcDbSymbolTableRecord
100
AcDbBlockTableRecord
  2
*D5
340
0
  0
BLOCK_RECORD
  5
9C
330
1
100
AcDbSymbolTableRecord
100
AcDbBlockTableRecord
  2
*D6
340
0
  0
BLOCK_RECORD
  5
A6
330
1
100
AcDbSymbolTableRecord
100
AcDbBlockTableRecord
  2
*D7
340
0
  0
BLOCK_RECORD
  5
B2
330
1
100
AcDbSymbolTableRecord
100
AcDbBlockTableRecord
  2
*D8
340
0
  0
BLOCK_RECORD
  5
C0
330
1
100
AcDbSymbolTableRecord
100
AcDbBlockTableRecord
  2
SW_CENTERMARKSYMBOL_0
340
0
102
{BLKREFS
331
C7
102
}
  0
BLOCK_RECORD
  5
E4
330
1
100
AcDbSymbolTableRecord
100
AcDbBlockTableRecord
  2
*D10
340
0
  0
BLOCK_RECORD
  5
F0
330
1
100
AcDbSymbolTableRecord
100
AcDbBlockTableRecord
  2
*D11
340
0
  0
BLOCK_RECORD
  5
FC
330
1
100
AcDbSymbolTableRecord
100
AcDbBlockTableRecord
  2
*D12
340
0
  0
BLOCK_RECORD
  5
108
330
1
100
AcDbSymbolTableRecord
100
AcDbBlockTableRecord
  2
*D13
340
0
  0
BLOCK_RECORD
  5
114
330
1
100
AcDbSymbolTableRecord
100
AcDbBlockTableRecord
  2
*D14
340
0
  0
BLOCK_RECORD
  5
11F
330
1
100
AcDbSymbolTableRecord
100
AcDbBlockTableRecord
  2
SW_CENTERMARKSYMBOL_1
340
0
102
{BLKREFS
331
126
102
}
  0
BLOCK_RECORD
  5
14A
330
1
100
AcDbSymbolTableRecord
100
AcDbBlockTableRecord
  2
*D16
340
0
  0
BLOCK_RECORD
  5
154
330
1
100
AcDbSymbolTableRecord
100
AcDbBlockTableRecord
  2
*D17
340
0
  0
BLOCK_RECORD
  5
160
330
1
100
AcDbSymbolTableRecord
100
AcDbBlockTableRecord
  2
*D18
340
0
  0
BLOCK_RECORD
  5
16C
330
1
100
AcDbSymbolTableRecord
100
AcDbBlockTableRecord
  2
*D19
340
0
  0
ENDTAB
  0
ENDSEC
  0
SECTION
  2
BLOCKS
  0
BLOCK
  5
20
330
1F
100
AcDbEntity
  8
0
100
AcDbBlockBegin
  2
*Model_Space
 70
     0
 71
     0
 10
0.0
 20
0.0
 30
0.0
  3
*Model_Space
  1

  0
ENDBLK
  5
21
330
1F
100
AcDbEntity
  8
0
100
AcDbBlockEnd
  0
BLOCK
  5
1C
330
1B
100
AcDbEntity
 67
     1
  8
0
100
AcDbBlockBegin
  2
*Paper_Space
 70
     0
 71
     0
 10
0.0
 20
0.0
 30
0.0
  3
*Paper_Space
  1

  0
ENDBLK
  5
1D
330
1B
100
AcDbEntity
 67
     1
  8
0
100
AcDbBlockEnd
  0
BLOCK
  5
24
330
23
100
AcDbEntity
  8
0
100
AcDbBlockBegin
  2
*Paper_Space0
 70
     0
 71
     0
 10
0.0
 20
0.0
 30
0.0
  3
*Paper_Space0
  1

  0
ENDBLK
  5
25
330
23
100
AcDbEntity
  8
0
100
AcDbBlockEnd
  0
BLOCK
  5
44
330
43
100
AcDbEntity
  8
0
100
AcDbBlockBegin
  2
*D1
 70
     1
 71
     0
 10
0.0
 20
0.0
 30
0.0
  3
*D1
  1

  0
SOLID
  5
46
330
43
100
AcDbEntity
  8
0
  6
Continuous
 62
     7
370
     0
100
AcDbTrace
 10
83.7206029622
 20
133.8465355856
 30
0.0
 11
80.7206029622
 21
134.7465355856
 31
0.0
 12
80.7206029622
 22
132.9465355856
 32
0.0
 13
80.7206029622
 23
132.9465355856
 33
0.0
  0
SOLID
  5
47
330
43
100
AcDbEntity
  8
0
  6
Continuous
 62
     7
370
     0
100
AcDbTrace
 10
87.2206029622
 20
133.8465355856
 30
0.0
 11
90.2206029622
 21
132.9465355856
 31
0.0
 12
90.2206029622
 22
134.7465355856
 32
0.0
 13
90.2206029622
 23
134.7465355856
 33
0.0
  0
LINE
  5
48
330
43
100
AcDbEntity
  8
0
  6
Continuous
 62
     7
370
     0
100
AcDbLine
 10
83.7206029622
 20
107.8465355856
 30
0.0
 11
83.7206029622
 21
134.8465355856
 31
0.0
  0
LINE
  5
49
330
43
100
AcDbEntity
  8
0
  6
Continuous
 62
     7
370
     0
100
AcDbLine
 10
87.2206029622
 20
107.8465355856
 30
0.0
 11
87.2206029622
 21
134.8465355856
 31
0.0
  0
LINE
  5
4A
330
43
100
AcDbEntity
  8
0
  6
Continuous
 62
     7
370
     0
100
AcDbLine
 10
83.7206029622
 20
133.8465355856
 30
0.0
 11
77.7206029622
 21
133.8465355856
 31
0.0
  0
LINE
  5
4B
330
43
100
AcDbEntity
  8
0
  6
Continuous
 62
     7
370
     0
100
AcDbLine
 10
83.7206029622
 20
133.8465355856
 30
0.0
 11
87.2206029622
 21
133.8465355856
 31
0.0
  0
LINE
  5
4C
330
43
100
AcDbEntity
  8
0
  6
Continuous
 62
     7
370
     0
100
AcDbLine
 10
87.2206029622
 20
133.8465355856
 30
0.0
 11
93.2206029622
 21
133.8465355856
 31
0.0
  0
MTEXT
  5
4D
330
43
100
AcDbEntity
  8
0
  6
Continuous
 62
     7
370
     0
100
AcDbMText
 10
73.9662324499
 20
142.2956323817
 30
0.0
 40
6.6145833333
 41
0.0
 71
     1
 72
     1
  1
%%c
  7
SLDTEXTSTYLE0
 73
     1
 44
1.0
  0
MTEXT
  5
4E
330
43
100
AcDbEntity
  8
0
  6
Continuous
 62
     7
370
     0
100
AcDbMText
 10
83.9505785565
 20
142.2956323817
 30
0.0
 40
6.6145833333
 41
0.0
 71
     1
 72
     1
  1
3,5
  7
SLDTEXTSTYLE0
 73
     1
 44
1.0
  0
ENDBLK
  5
45
330
43
100
AcDbEntity
  8
0
100
AcDbBlockEnd
  0
BLOCK
  5
52
330
51
100
AcDbEntity
  8
0
100
AcDbBlockBegin
  2
*D2
 70
     1
 71
     0
 10
0.0
 20
0.0
 30
0.0
  3
*D2
  1

  0
SOLID
  5
54
330
51
100
AcDbEntity
  8
0
  6
Continuous
 62
     7
370
     0
100
AcDbTrace
 10
107.0153255013
 20
103.8465355856
 30
0.0
 11
106.1153255013
 21
100.8465355856
 31
0.0
 12
107.9153255013
 22
100.8465355856
 32
0.0
 13
107.9153255013
 23
100.8465355856
 33
0.0
  0
SOLID
  5
55
330
51
100
AcDbEntity
  8
0
  6
Continuous
 62
     7
370
     0
100
AcDbTrace
 10
107.0153255013
 20
106.8465355856
 30
0.0
 11
107.9153255013
 21
109.8465355856
 31
0.0
 12
106.1153255013
 22
109.8465355856
 32
0.0
 13
106.1153255013
 23
109.8465355856
 33
0.0
  0
LINE
  5
56
330
51
100
AcDbEntity
  8
0
  6
Continuous
 62
     7
370
     0
100
AcDbLine
 10
101.4706029579
 20
103.8465355856
 30
0.0
 11
108.0153255013
 21
103.8465355856
 31
0.0
  0
LINE
  5
57
330
51
100
AcDbEntity
  8
0
  6
Continuous
 62
     7
370
     0
100
AcDbLine
 10
86.4706029622
 20
106.8465355856
 30
0.0
 11
108.0153255013
 21
106.8465355856
 31
0.0
  0
LINE
  5
58
330
51
100
AcDbEntity
  8
0
  6
Continuous
 62
     7
370
     0
100
AcDbLine
 10
107.0153255013
 20
103.8465355856
 30
0.0
 11
107.0153255013
 21
89.816588837
 31
0.0
  0
LINE
  5
59
330
51
100
AcDbEntity
  8
0
  6
Continuous
 62
     7
370
     0
100
AcDbLine
 10
107.0153255013
 20
103.8465355856
 30
0.0
 11
107.0153255013
 21
106.8465355856
 31
0.0
  0
LINE
  5
5A
330
51
100
AcDbEntity
  8
0
  6
Continuous
 62
     7
370
     0
100
AcDbLine
 10
107.0153255013
 20
106.8465355856
 30
0.0
 11
107.0153255013
 21
112.8465355856
 31
0.0
  0
MTEXT
  5
5B
330
51
100
AcDbEntity
  8
0
  6
Continuous
 62
     7
370
     0
100
AcDbMText
 10
98.5662287052
 20
91.404088837
 30
0.0
 40
6.6145833333
 41
0.0
 71
     1
 72
     1
  1
3
  7
SLDTEXTSTYLE0
 11
6.123031769111886E-17
 21
1.0
 31
0.0
 73
     1
 44
1.0
  0
ENDBLK
  5
53
330
51
100
AcDbEntity
  8
0
100
AcDbBlockEnd
  0
BLOCK
  5
5E
330
5D
100
AcDbEntity
  8
0
100
AcDbBlockBegin
  2
*D3
 70
     1
 71
     0
 10
0.0
 20
0.0
 30
0.0
  3
*D3
  1

  0
SOLID
  5
60
330
5D
100
AcDbEntity
  8
0
  6
Continuous
 62
     7
370
     0
100
AcDbTrace
 10
117.4706029579
 20
103.8465355856
 30
0.0
 11
116.5706029579
 21
100.8465355856
 31
0.0
 12
118.3706029579
 22
100.8465355856
 32
0.0
 13
118.3706029579
 23
100.8465355856
 33
0.0
  0
SOLID
  5
61
330
5D
100
AcDbEntity
  8
0
  6
Continuous
 62
     7
370
     0
100
AcDbTrace
 10
117.4706029579
 20
123.8465355856
 30
0.0
 11
118.3706029579
 21
126.8465355856
 31
0.0
 12
116.5706029579
 22
126.8465355856
 32
0.0
 13
116.5706029579
 23
126.8465355856
 33
0.0
  0
LINE
  5
62
330
5D
100
AcDbEntity
  8
0
  6
Continuous
 62
     7
370
     0
100
AcDbLine
 10
102.4706029579
 20
103.8465355856
 30
0.0
 11
118.4706029579
 21
103.8465355856
 31
0.0
  0
LINE
  5
63
330
5D
100
AcDbEntity
  8
0
  6
Continuous
 62
     7
370
     0
100
AcDbLine
 10
102.4706029579
 20
123.8465355856
 30
0.0
 11
118.4706029579
 21
123.8465355856
 31
0.0
  0
LINE
  5
64
330
5D
100
AcDbEntity
  8
0
  6
Continuous
 62
     7
370
     0
100
AcDbLine
 10
117.4706029579
 20
103.8465355856
 30
0.0
 11
117.4706029579
 21
97.8465355856
 31
0.0
  0
LINE
  5
65
330
5D
100
AcDbEntity
  8
0
  6
Continuous
 62
     7
370
     0
100
AcDbLine
 10
117.4706029579
 20
103.8465355856
 30
0.0
 11
117.4706029579
 21
123.8465355856
 31
0.0
  0
LINE
  5
66
330
5D
100
AcDbEntity
  8
0
  6
Continuous
 62
     7
370
     0
100
AcDbLine
 10
117.4706029579
 20
123.8465355856
 30
0.0
 11
117.4706029579
 21
129.8465355856
 31
0.0
  0
MTEXT
  5
67
330
5D
100
AcDbEntity
  8
0
  6
Continuous
 62
     7
370
     0
100
AcDbMText
 10
109.0215061618
 20
108.7917292052
 30
0.0
 40
6.6145833333
 41
0.0
 71
     1
 72
     1
  1
20
  7
SLDTEXTSTYLE0
 11
6.123031769111886E-17
 21
1.0
 31
0.0
 73
     1
 44
1.0
  0
ENDBLK
  5
5F
330
5D
100
AcDbEntity
  8
0
100
AcDbBlockEnd
  0
BLOCK
  5
85
330
84
100
AcDbEntity
  8
0
100
AcDbBlockBegin
  2
*D4
 70
     1
 71
     0
 10
0.0
 20
0.0
 30
0.0
  3
*D4
  1

  0
SOLID
  5
87
330
84
100
AcDbEntity
  8
0
  6
Continuous
 62
     7
370
     0
100
AcDbTrace
 10
176.587066166
 20
104.0966382509
 30
0.0
 11
175.687066166
 21
101.0966382509
 31
0.0
 12
177.487066166
 22
101.0966382509
 32
0.0
 13
177.487066166
 23
101.0966382509
 33
0.0
  0
SOLID
  5
88
330
84
100
AcDbEntity
  8
0
  6
Continuous
 62
     7
370
     0
100
AcDbTrace
 10
176.587066166
 20
114.0966382509
 30
0.0
 11
177.487066166
 21
117.0966382509
 31
0.0
 12
175.687066166
 22
117.0966382509
 32
0.0
 13
175.687066166
 23
117.0966382509
 33
0.0
  0
LINE
  5
89
330
84
100
AcDbEntity
  8
0
  6
Continuous
 62
     7
370
     0
100
AcDbLine
 10
166.587066166
 20
104.0966382509
 30
0.0
 11
177.587066166
 21
104.0966382509
 31
0.0
  0
LINE
  5
8A
330
84
100
AcDbEntity
  8
0
  6
Continuous
 62
     7
370
     0
100
AcDbLine
 10
154.4370661702
 20
114.0966382509
 30
0.0
 11
177.587066166
 21
114.0966382509
 31
0.0
  0
LINE
  5
8B
330
84
100
AcDbEntity
  8
0
  6
Continuous
 62
     7
370
     0
100
AcDbLine
 10
176.587066166
 20
104.0966382509
 30
0.0
 11
176.587066166
 21
98.0966382509
 31
0.0
  0
LINE
  5
8C
330
84
100
AcDbEntity
  8
0
  6
Continuous
 62
     7
370
     0
100
AcDbLine
 10
176.587066166
 20
104.0966382509
 30
0.0
 11
176.587066166
 21
114.0966382509
 31
0.0
  0
LINE
  5
8D
330
84
100
AcDbEntity
  8
0
  6
Continuous
 62
     7
370
     0
100
AcDbLine
 10
176.587066166
 20
114.0966382509
 30
0.0
 11
176.587066166
 21
120.0966382509
 31
0.0
  0
MTEXT
  5
8E
330
84
100
AcDbEntity
  8
0
  6
Continuous
 62
     7
370
     0
100
AcDbMText
 10
168.1379693699
 20
104.345005367
 30
0.0
 40
6.6145833333
 41
0.0
 71
     1
 72
     1
  1
10
  7
SLDTEXTSTYLE0
 11
6.123031769111886E-17
 21
1.0
 31
0.0
 73
     1
 44
1.0
  0
ENDBLK
  5
86
330
84
100
AcDbEntity
  8
0
100
AcDbBlockEnd
  0
BLOCK
  5
91
330
90
100
AcDbEntity
  8
0
100
AcDbBlockBegin
  2
*D5
 70
     1
 71
     0
 10
0.0
 20
0.0
 30
0.0
  3
*D5
  1

  0
SOLID
  5
93
330
90
100
AcDbEntity
  8
0
  6
Continuous
 62
     7
370
     0
100
AcDbTrace
 10
176.587066166
 20
129.0966382509
 30
0.0
 11
177.487066166
 21
132.0966382509
 31
0.0
 12
175.687066166
 22
132.0966382509
 32
0.0
 13
175.687066166
 23
132.0966382509
 33
0.0
  0
SOLID
  5
94
330
90
100
AcDbEntity
  8
0
  6
Continuous
 62
     7
370
     0
100
AcDbTrace
 10
176.587066166
 20
114.0966382509
 30
0.0
 11
175.687066166
 21
111.0966382509
 31
0.0
 12
177.487066166
 22
111.0966382509
 32
0.0
 13
177.487066166
 23
111.0966382509
 33
0.0
  0
LINE
  5
95
330
90
100
AcDbEntity
  8
0
  6
Continuous
 62
     7
370
     0
100
AcDbLine
 10
157.5870661702
 20
129.0966382509
 30
0.0
 11
177.587066166
 21
129.0966382509
 31
0.0
  0
LINE
  5
96
330
90
100
AcDbEntity
  8
0
  6
Continuous
 62
     7
370
     0
100
AcDbLine
 10
154.4370661702
 20
114.0966382509
 30
0.0
 11
177.587066166
 21
114.0966382509
 31
0.0
  0
LINE
  5
97
330
90
100
AcDbEntity
  8
0
  6
Continuous
 62
     7
370
     0
100
AcDbLine
 10
176.587066166
 20
129.0966382509
 30
0.0
 11
176.587066166
 21
135.0966382509
 31
0.0
  0
LINE
  5
98
330
90
100
AcDbEntity
  8
0
  6
Continuous
 62
     7
370
     0
100
AcDbLine
 10
176.587066166
 20
129.0966382509
 30
0.0
 11
176.587066166
 21
114.0966382509
 31
0.0
  0
LINE
  5
99
330
90
100
AcDbEntity
  8
0
  6
Continuous
 62
     7
370
     0
100
AcDbLine
 10
176.587066166
 20
114.0966382509
 30
0.0
 11
176.587066166
 21
108.0966382509
 31
0.0
  0
MTEXT
  5
9A
330
90
100
AcDbEntity
  8
0
  6
Continuous
 62
     7
370
     0
100
AcDbMText
 10
168.1379693699
 20
117.8776771839
 30
0.0
 40
6.6145833333
 41
0.0
 71
     1
 72
     1
  1
15
  7
SLDTEXTSTYLE0
 11
-7.044197039909883E-15
 21
1.0
 31
0.0
 73
     1
 44
1.0
  0
ENDBLK
  5
92
330
90
100
AcDbEntity
  8
0
100
AcDbBlockEnd
  0
BLOCK
  5
9D
330
9C
100
AcDbEntity
  8
0
100
AcDbBlockBegin
  2
*D6
 70
     1
 71
     0
 10
0.0
 20
0.0
 30
0.0
  3
*D6
  1

  0
SOLID
  5
9F
330
9C
100
AcDbEntity
  8
0
  6
Continuous
 62
     7
370
     0
100
AcDbTrace
 10
188.587066166
 20
104.0966382509
 30
0.0
 11
189.487066166
 21
107.0966382509
 31
0.0
 12
187.687066166
 22
107.0966382509
 32
0.0
 13
187.687066166
 23
107.0966382509
 33
0.0
  0
SOLID
  5
A0
330
9C
100
AcDbEntity
  8
0
  6
Continuous
 62
     7
370
     0
100
AcDbTrace
 10
188.587066166
 20
139.0966382509
 30
0.0
 11
187.687066166
 21
136.0966382509
 31
0.0
 12
189.487066166
 22
136.0966382509
 32
0.0
 13
189.487066166
 23
136.0966382509
 33
0.0
  0
LINE
  5
A1
330
9C
100
AcDbEntity
  8
0
  6
Continuous
 62
     7
370
     0
100
AcDbLine
 10
168.374452236
 20
104.0966382509
 30
0.0
 11
189.587066166
 21
104.0966382509
 31
0.0
  0
LINE
  5
A2
330
9C
100
AcDbEntity
  8
0
  6
Continuous
 62
     7
370
     0
100
AcDbLine
 10
168.2791517303
 20
139.0966382509
 30
0.0
 11
189.587066166
 21
139.0966382509
 31
0.0
  0
LINE
  5
A3
330
9C
100
AcDbEntity
  8
0
  6
Continuous
 62
     7
370
     0
100
AcDbLine
 10
188.587066166
 20
104.0966382509
 30
0.0
 11
188.587066166
 21
139.0966382509
 31
0.0
  0
MTEXT
  5
A4
330
9C
100
AcDbEntity
  8
0
  6
Continuous
 62
     7
370
     0
100
AcDbMText
 10
180.1379693699
 20
117.8776771839
 30
0.0
 40
6.6145833333
 41
0.0
 71
     1
 72
     1
  1
35
  7
SLDTEXTSTYLE0
 11
6.123031769111886E-17
 21
1.0
 31
0.0
 73
     1
 44
1.0
  0
ENDBLK
  5
9E
330
9C
100
AcDbEntity
  8
0
100
AcDbBlockEnd
  0
BLOCK
  5
A7
330
A6
100
AcDbEntity
  8
0
100
AcDbBlockBegin
  2
*D7
 70
     1
 71
     0
 10
0.0
 20
0.0
 30
0.0
  3
*D7
  1

  0
SOLID
  5
A9
330
A6
100
AcDbEntity
  8
0
  6
Continuous
 62
     7
370
     0
100
AcDbTrace
 10
156.5870661702
 20
142.1101645194
 30
0.0
 11
159.5870661702
 21
141.2101645194
 31
0.0
 12
159.5870661702
 22
143.0101645194
 32
0.0
 13
159.5870661702
 23
143.0101645194
 33
0.0
  0
SOLID
  5
AA
330
A6
100
AcDbEntity
  8
0
  6
Continuous
 62
     7
370
     0
100
AcDbTrace
 10
144.5870661702
 20
142.1101645194
 30
0.0
 11
141.5870661702
 21
143.0101645194
 31
0.0
 12
141.5870661702
 22
141.2101645194
 32
0.0
 13
141.5870661702
 23
141.2101645194
 33
0.0
  0
LINE
  5
AB
330
A6
100
AcDbEntity
  8
0
  6
Continuous
 62
     7
370
     0
100
AcDbLine
 10
156.5870661702
 20
130.0966382509
 30
0.0
 11
156.5870661702
 21
143.1101645194
 31
0.0
  0
LINE
  5
AC
330
A6
100
AcDbEntity
  8
0
  6
Continuous
 62
     7
370
     0
100
AcDbLine
 10
144.5870661702
 20
130.0966382509
 30
0.0
 11
144.5870661702
 21
143.1101645194
 31
0.0
  0
LINE
  5
AD
330
A6
100
AcDbEntity
  8
0
  6
Continuous
 62
     7
370
     0
100
AcDbLine
 10
156.5870661702
 20
142.1101645194
 30
0.0
 11
162.5870661702
 21
142.1101645194
 31
0.0
  0
LINE
  5
AE
330
A6
100
AcDbEntity
  8
0
  6
Continuous
 62
     7
370
     0
100
AcDbLine
 10
156.5870661702
 20
142.1101645194
 30
0.0
 11
144.5870661702
 21
142.1101645194
 31
0.0
  0
LINE
  5
AF
330
A6
100
AcDbEntity
  8
0
  6
Continuous
 62
     7
370
     0
100
AcDbLine
 10
144.5870661702
 20
142.1101645194
 30
0.0
 11
138.5870661702
 21
142.1101645194
 31
0.0
  0
MTEXT
  5
B0
330
A6
100
AcDbEntity
  8
0
  6
Continuous
 62
     7
370
     0
100
AcDbMText
 10
145.8573740041
 20
150.5592613155
 30
0.0
 40
6.6145833333
 41
0.0
 71
     1
 72
     1
  1
12
  7
SLDTEXTSTYLE0
 73
     1
 44
1.0
  0
ENDBLK
  5
A8
330
A6
100
AcDbEntity
  8
0
100
AcDbBlockEnd
  0
BLOCK
  5
B3
330
B2
100
AcDbEntity
  8
0
100
AcDbBlockBegin
  2
*D8
 70
     1
 71
     0
 10
0.0
 20
0.0
 30
0.0
  3
*D8
  1

  0
SOLID
  5
B5
330
B2
100
AcDbEntity
  8
0
  6
Continuous
 62
     7
370
     0
100
AcDbTrace
 10
131.3025554981
 20
131.3466382509
 30
0.0
 11
132.2025554981
 21
134.3466382509
 31
0.0
 12
130.4025554981
 22
134.3466382509
 32
0.0
 13
130.4025554981
 23
134.3466382509
 33
0.0
  0
SOLID
  5
B6
330
B2
100
AcDbEntity
  8
0
  6
Continuous
 62
     7
370
     0
100
AcDbTrace
 10
131.3025554981
 20
126.8466382509
 30
0.0
 11
130.4025554981
 21
123.8466382509
 31
0.0
 12
132.2025554981
 22
123.8466382509
 32
0.0
 13
132.2025554981
 23
123.8466382509
 33
0.0
  0
LINE
  5
B7
330
B2
100
AcDbEntity
  8
0
  6
Continuous
 62
     7
370
     0
100
AcDbLine
 10
145.8370661702
 20
131.3466382509
 30
0.0
 11
130.3025554981
 21
131.3466382509
 31
0.0
  0
LINE
  5
B8
330
B2
100
AcDbEntity
  8
0
  6
Continuous
 62
     7
370
     0
100
AcDbLine
 10
145.8370661702
 20
126.8466382509
 30
0.0
 11
130.3025554981
 21
126.8466382509
 31
0.0
  0
LINE
  5
B9
330
B2
100
AcDbEntity
  8
0
  6
Continuous
 62
     7
370
     0
100
AcDbLine
 10
131.3025554981
 20
131.3466382509
 30
0.0
 11
131.3025554981
 21
137.3466382509
 31
0.0
  0
LINE
  5
BA
330
B2
100
AcDbEntity
  8
0
  6
Continuous
 62
     7
370
     0
100
AcDbLine
 10
131.3025554981
 20
131.3466382509
 30
0.0
 11
131.3025554981
 21
126.8466382509
 31
0.0
  0
LINE
  5
BB
330
B2
100
AcDbEntity
  8
0
  6
Continuous
 62
     7
370
     0
100
AcDbLine
 10
131.3025554981
 20
126.8466382509
 30
0.0
 11
131.3025554981
 21
120.8466382509
 31
0.0
  0
MTEXT
  5
BC
330
B2
100
AcDbEntity
  8
0
  6
Continuous
 62
     7
370
     0
100
AcDbMText
 10
122.853458702
 20
122.8533734393
 30
0.0
 40
6.6145833333
 41
0.0
 71
     1
 72
     1
  1
4,5
  7
SLDTEXTSTYLE0
 11
-7.044197039909883E-15
 21
1.0
 31
0.0
 73
     1
 44
1.0
  0
ENDBLK
  5
B4
330
B2
100
AcDbEntity
  8
0
100
AcDbBlockEnd
  0
BLOCK
  5
C1
330
C0
100
AcDbEntity
  8
0
100
AcDbBlockBegin
  2
SW_CENTERMARKSYMBOL_0
 70
     0
 71
     0
 10
0.0
 20
0.0
 30
0.0
  3
SW_CENTERMARKSYMBOL_0
  1

  0
LINE
  5
C3
330
C0
100
AcDbEntity
  8
0
  6
Continuous
 62
     0
370
     0
100
AcDbLine
 10
0.0
 20
0.0
 30
0.0
 11
0.0
 21
1.5
 31
0.0
  0
LINE
  5
C4
330
C0
100
AcDbEntity
  8
0
  6
Continuous
 62
     0
370
     0
100
AcDbLine
 10
0.0
 20
0.0
 30
0.0
 11
-1.5
 21
0.0
 31
0.0
  0
LINE
  5
C5
330
C0
100
AcDbEntity
  8
0
  6
Continuous
 62
     0
370
     0
100
AcDbLine
 10
0.0
 20
0.0
 30
0.0
 11
0.0
 21
-1.5
 31
0.0
  0
LINE
  5
C6
330
C0
100
AcDbEntity
  8
0
  6
Continuous
 62
     0
370
     0
100
AcDbLine
 10
0.0
 20
0.0
 30
0.0
 11
1.5
 21
0.0
 31
0.0
  0
ENDBLK
  5
C2
330
C0
100
AcDbEntity
  8
0
100
AcDbBlockEnd
  0
BLOCK
  5
E5
330
E4
100
AcDbEntity
  8
0
100
AcDbBlockBegin
  2
*D10
 70
     1
 71
     0
 10
0.0
 20
0.0
 30
0.0
  3
*D10
  1

  0
SOLID
  5
E7
330
E4
100
AcDbEntity
  8
0
  6
Continuous
 62
     7
370
     0
100
AcDbTrace
 10
218.5841261965
 20
157.1074048991
 30
0.0
 11
215.5841261965
 21
158.0074048991
 31
0.0
 12
215.5841261965
 22
156.2074048991
 32
0.0
 13
215.5841261965
 23
156.2074048991
 33
0.0
  0
SOLID
  5
E8
330
E4
100
AcDbEntity
  8
0
  6
Continuous
 62
     7
370
     0
100
AcDbTrace
 10
230.5841261965
 20
157.1074048991
 30
0.0
 11
233.5841261965
 21
156.2074048991
 31
0.0
 12
233.5841261965
 22
158.0074048991
 32
0.0
 13
233.5841261965
 23
158.0074048991
 33
0.0
  0
LINE
  5
E9
330
E4
100
AcDbEntity
  8
0
  6
Continuous
 62
     7
370
     0
100
AcDbLine
 10
218.5841261965
 20
138.4832091243
 30
0.0
 11
218.5841261965
 21
158.1074048991
 31
0.0
  0
LINE
  5
EA
330
E4
100
AcDbEntity
  8
0
  6
Continuous
 62
     7
370
     0
100
AcDbLine
 10
230.5841261965
 20
138.4832091243
 30
0.0
 11
230.5841261965
 21
158.1074048991
 31
0.0
  0
LINE
  5
EB
330
E4
100
AcDbEntity
  8
0
  6
Continuous
 62
     7
370
     0
100
AcDbLine
 10
218.5841261965
 20
157.1074048991
 30
0.0
 11
212.5841261965
 21
157.1074048991
 31
0.0
  0
LINE
  5
EC
330
E4
100
AcDbEntity
  8
0
  6
Continuous
 62
     7
370
     0
100
AcDbLine
 10
218.5841261965
 20
157.1074048991
 30
0.0
 11
230.5841261965
 21
157.1074048991
 31
0.0
  0
LINE
  5
ED
330
E4
100
AcDbEntity
  8
0
  6
Continuous
 62
     7
370
     0
100
AcDbLine
 10
230.5841261965
 20
157.1074048991
 30
0.0
 11
236.5841261965
 21
157.1074048991
 31
0.0
  0
MTEXT
  5
EE
330
E4
100
AcDbEntity
  8
0
  6
Continuous
 62
     7
370
     0
100
AcDbMText
 10
219.9346172619
 20
165.5565016952
 30
0.0
 40
6.6145833333
 41
0.0
 71
     1
 72
     1
  1
12
  7
SLDTEXTSTYLE0
 73
     1
 44
1.0
  0
ENDBLK
  5
E6
330
E4
100
AcDbEntity
  8
0
100
AcDbBlockEnd
  0
BLOCK
  5
F1
330
F0
100
AcDbEntity
  8
0
100
AcDbBlockBegin
  2
*D11
 70
     1
 71
     0
 10
0.0
 20
0.0
 30
0.0
  3
*D11
  1

  0
SOLID
  5
F3
330
F0
100
AcDbEntity
  8
0
  6
Continuous
 62
     7
370
     0
100
AcDbTrace
 10
203.2884128717
 20
139.7332091243
 30
0.0
 11
204.1884128717
 21
142.7332091243
 31
0.0
 12
202.3884128717
 22
142.7332091243
 32
0.0
 13
202.3884128717
 23
142.7332091243
 33
0.0
  0
SOLID
  5
F4
330
F0
100
AcDbEntity
  8
0
  6
Continuous
 62
     7
370
     0
100
AcDbTrace
 10
203.2884128717
 20
135.2332091243
 30
0.0
 11
202.3884128717
 21
132.2332091243
 31
0.0
 12
204.1884128717
 22
132.2332091243
 32
0.0
 13
204.1884128717
 23
132.2332091243
 33
0.0
  0
LINE
  5
F5
330
F0
100
AcDbEntity
  8
0
  6
Continuous
 62
     7
370
     0
100
AcDbLine
 10
219.8341261965
 20
139.7332091243
 30
0.0
 11
202.2884128717
 21
139.7332091243
 31
0.0
  0
LINE
  5
F6
330
F0
100
AcDbEntity
  8
0
  6
Continuous
 62
     7
370
     0
100
AcDbLine
 10
219.8341261965
 20
135.2332091243
 30
0.0
 11
202.2884128717
 21
135.2332091243
 31
0.0
  0
LINE
  5
F7
330
F0
100
AcDbEntity
  8
0
  6
Continuous
 62
     7
370
     0
100
AcDbLine
 10
203.2884128717
 20
139.7332091243
 30
0.0
 11
203.2884128717
 21
145.7332091243
 31
0.0
  0
LINE
  5
F8
330
F0
100
AcDbEntity
  8
0
  6
Continuous
 62
     7
370
     0
100
AcDbLine
 10
203.2884128717
 20
139.7332091243
 30
0.0
 11
203.2884128717
 21
135.2332091243
 31
0.0
  0
LINE
  5
F9
330
F0
100
AcDbEntity
  8
0
  6
Continuous
 62
     7
370
     0
100
AcDbLine
 10
203.2884128717
 20
135.2332091243
 30
0.0
 11
203.2884128717
 21
129.2332091243
 31
0.0
  0
MTEXT
  5
FA
330
F0
100
AcDbEntity
  8
0
  6
Continuous
 62
     7
370
     0
100
AcDbMText
 10
194.8393160755
 20
130.8337079452
 30
0.0
 40
6.6145833333
 41
0.0
 71
     1
 72
     1
  1
4,5
  7
SLDTEXTSTYLE0
 11
-7.044197039909883E-15
 21
1.0
 31
0.0
 73
     1
 44
1.0
  0
ENDBLK
  5
F2
330
F0
100
AcDbEntity
  8
0
100
AcDbBlockEnd
  0
BLOCK
  5
FD
330
FC
100
AcDbEntity
  8
0
100
AcDbBlockBegin
  2
*D12
 70
     1
 71
     0
 10
0.0
 20
0.0
 30
0.0
  3
*D12
  1

  0
SOLID
  5
FF
330
FC
100
AcDbEntity
  8
0
  6
Continuous
 62
     7
370
     0
100
AcDbTrace
 10
256.5841261923
 20
104.9832091243
 30
0.0
 11
255.6841261923
 21
101.9832091243
 31
0.0
 12
257.4841261923
 22
101.9832091243
 32
0.0
 13
257.4841261923
 23
101.9832091243
 33
0.0
  0
SOLID
  5
100
330
FC
100
AcDbEntity
  8
0
  6
Continuous
 62
     7
370
     0
100
AcDbTrace
 10
256.5841261923
 20
122.4832091243
 30
0.0
 11
257.4841261923
 21
125.4832091243
 31
0.0
 12
255.6841261923
 22
125.4832091243
 32
0.0
 13
255.6841261923
 23
125.4832091243
 33
0.0
  0
LINE
  5
101
330
FC
100
AcDbEntity
  8
0
  6
Continuous
 62
     7
370
     0
100
AcDbLine
 10
240.5841261923
 20
104.9832091243
 30
0.0
 11
257.5841261923
 21
104.9832091243
 31
0.0
  0
LINE
  5
102
330
FC
100
AcDbEntity
  8
0
  6
Continuous
 62
     7
370
     0
100
AcDbLine
 10
228.4341261965
 20
122.4832091243
 30
0.0
 11
257.5841261923
 21
122.4832091243
 31
0.0
  0
LINE
  5
103
330
FC
100
AcDbEntity
  8
0
  6
Continuous
 62
     7
370
     0
100
AcDbLine
 10
256.5841261923
 20
104.9832091243
 30
0.0
 11
256.5841261923
 21
98.9832091243
 31
0.0
  0
LINE
  5
104
330
FC
100
AcDbEntity
  8
0
  6
Continuous
 62
     7
370
     0
100
AcDbLine
 10
256.5841261923
 20
104.9832091243
 30
0.0
 11
256.5841261923
 21
122.4832091243
 31
0.0
  0
LINE
  5
105
330
FC
100
AcDbEntity
  8
0
  6
Continuous
 62
     7
370
     0
100
AcDbLine
 10
256.5841261923
 20
122.4832091243
 30
0.0
 11
256.5841261923
 21
128.4832091243
 31
0.0
  0
MTEXT
  5
106
330
FC
100
AcDbEntity
  8
0
  6
Continuous
 62
     7
370
     0
100
AcDbMText
 10
248.1350293962
 20
105.0413312743
 30
0.0
 40
6.6145833333
 41
0.0
 71
     1
 72
     1
  1
17,5
  7
SLDTEXTSTYLE0
 11
6.123031769111886E-17
 21
1.0
 31
0.0
 73
     1
 44
1.0
  0
ENDBLK
  5
FE
330
FC
100
AcDbEntity
  8
0
100
AcDbBlockEnd
  0
BLOCK
  5
109
330
108
100
AcDbEntity
  8
0
100
AcDbBlockBegin
  2
*D13
 70
     1
 71
     0
 10
0.0
 20
0.0
 30
0.0
  3
*D13
  1

  0
SOLID
  5
10B
330
108
100
AcDbEntity
  8
0
  6
Continuous
 62
     7
370
     0
100
AcDbTrace
 10
256.5841261923
 20
137.4832091243
 30
0.0
 11
257.4841261923
 21
140.4832091243
 31
0.0
 12
255.6841261923
 22
140.4832091243
 32
0.0
 13
255.6841261923
 23
140.4832091243
 33
0.0
  0
SOLID
  5
10C
330
108
100
AcDbEntity
  8
0
  6
Continuous
 62
     7
370
     0
100
AcDbTrace
 10
256.5841261923
 20
122.4832091243
 30
0.0
 11
255.6841261923
 21
119.4832091243
 31
0.0
 12
257.4841261923
 22
119.4832091243
 32
0.0
 13
257.4841261923
 23
119.4832091243
 33
0.0
  0
LINE
  5
10D
330
108
100
AcDbEntity
  8
0
  6
Continuous
 62
     7
370
     0
100
AcDbLine
 10
231.5841261965
 20
137.4832091243
 30
0.0
 11
257.5841261923
 21
137.4832091243
 31
0.0
  0
LINE
  5
10E
330
108
100
AcDbEntity
  8
0
  6
Continuous
 62
     7
370
     0
100
AcDbLine
 10
228.4341261965
 20
122.4832091243
 30
0.0
 11
257.5841261923
 21
122.4832091243
 31
0.0
  0
LINE
  5
10F
330
108
100
AcDbEntity
  8
0
  6
Continuous
 62
     7
370
     0
100
AcDbLine
 10
256.5841261923
 20
137.4832091243
 30
0.0
 11
256.5841261923
 21
143.4832091243
 31
0.0
  0
LINE
  5
110
330
108
100
AcDbEntity
  8
0
  6
Continuous
 62
     7
370
     0
100
AcDbLine
 10
256.5841261923
 20
137.4832091243
 30
0.0
 11
256.5841261923
 21
122.4832091243
 31
0.0
  0
LINE
  5
111
330
108
100
AcDbEntity
  8
0
  6
Continuous
 62
     7
370
     0
100
AcDbLine
 10
256.5841261923
 20
122.4832091243
 30
0.0
 11
256.5841261923
 21
116.4832091243
 31
0.0
  0
MTEXT
  5
112
330
108
100
AcDbEntity
  8
0
  6
Continuous
 62
     7
370
     0
100
AcDbMText
 10
248.1350293962
 20
125.9202681782
 30
0.0
 40
6.6145833333
 41
0.0
 71
     1
 72
     1
  1
15
  7
SLDTEXTSTYLE0
 11
-7.044197039909883E-15
 21
1.0
 31
0.0
 73
     1
 44
1.0
  0
ENDBLK
  5
10A
330
108
100
AcDbEntity
  8
0
100
AcDbBlockEnd
  0
BLOCK
  5
115
330
114
100
AcDbEntity
  8
0
100
AcDbBlockBegin
  2
*D14
 70
     1
 71
     0
 10
0.0
 20
0.0
 30
0.0
  3
*D14
  1

  0
SOLID
  5
117
330
114
100
AcDbEntity
  8
0
  6
Continuous
 62
     7
370
     0
100
AcDbTrace
 10
268.5841261923
 20
104.9832091243
 30
0.0
 11
269.4841261923
 21
107.9832091243
 31
0.0
 12
267.6841261923
 22
107.9832091243
 32
0.0
 13
267.6841261923
 23
107.9832091243
 33
0.0
  0
SOLID
  5
118
330
114
100
AcDbEntity
  8
0
  6
Continuous
 62
     7
370
     0
100
AcDbTrace
 10
268.5841261923
 20
154.9832091243
 30
0.0
 11
267.6841261923
 21
151.9832091243
 31
0.0
 12
269.4841261923
 22
151.9832091243
 32
0.0
 13
269.4841261923
 23
151.9832091243
 33
0.0
  0
LINE
  5
119
330
114
100
AcDbEntity
  8
0
  6
Continuous
 62
     7
370
     0
100
AcDbLine
 10
241.5841261923
 20
104.9832091243
 30
0.0
 11
269.5841261923
 21
104.9832091243
 31
0.0
  0
LINE
  5
11A
330
114
100
AcDbEntity
  8
0
  6
Continuous
 62
     7
370
     0
100
AcDbLine
 10
241.5841261923
 20
154.9832091243
 30
0.0
 11
269.5841261923
 21
154.9832091243
 31
0.0
  0
LINE
  5
11B
330
114
100
AcDbEntity
  8
0
  6
Continuous
 62
     7
370
     0
100
AcDbLine
 10
268.5841261923
 20
104.9832091243
 30
0.0
 11
268.5841261923
 21
154.9832091243
 31
0.0
  0
MTEXT
  5
11C
330
114
100
AcDbEntity
  8
0
  6
Continuous
 62
     7
370
     0
100
AcDbMText
 10
260.1350293962
 20
125.9202681782
 30
0.0
 40
6.6145833333
 41
0.0
 71
     1
 72
     1
  1
50
  7
SLDTEXTSTYLE0
 11
6.123031769111886E-17
 21
1.0
 31
0.0
 73
     1
 44
1.0
  0
ENDBLK
  5
116
330
114
100
AcDbEntity
  8
0
100
AcDbBlockEnd
  0
BLOCK
  5
120
330
11F
100
AcDbEntity
  8
0
100
AcDbBlockBegin
  2
SW_CENTERMARKSYMBOL_1
 70
     0
 71
     0
 10
0.0
 20
0.0
 30
0.0
  3
SW_CENTERMARKSYMBOL_1
  1

  0
LINE
  5
122
330
11F
100
AcDbEntity
  8
0
  6
Continuous
 62
     0
370
     0
100
AcDbLine
 10
0.0
 20
0.0
 30
0.0
 11
0.0
 21
1.5
 31
0.0
  0
LINE
  5
123
330
11F
100
AcDbEntity
  8
0
  6
Continuous
 62
     0
370
     0
100
AcDbLine
 10
0.0
 20
0.0
 30
0.0
 11
-1.5
 21
0.0
 31
0.0
  0
LINE
  5
124
330
11F
100
AcDbEntity
  8
0
  6
Continuous
 62
     0
370
     0
100
AcDbLine
 10
0.0
 20
0.0
 30
0.0
 11
0.0
 21
-1.5
 31
0.0
  0
LINE
  5
125
330
11F
100
AcDbEntity
  8
0
  6
Continuous
 62
     0
370
     0
100
AcDbLine
 10
0.0
 20
0.0
 30
0.0
 11
1.5
 21
0.0
 31
0.0
  0
ENDBLK
  5
121
330
11F
100
AcDbEntity
  8
0
100
AcDbBlockEnd
  0
BLOCK
  5
14B
330
14A
100
AcDbEntity
  8
0
100
AcDbBlockBegin
  2
*D16
 70
     1
 71
     0
 10
0.0
 20
0.0
 30
0.0
  3
*D16
  1

  0
SOLID
  5
14D
330
14A
100
AcDbEntity
  8
0
  6
Continuous
 62
     7
370
     0
100
AcDbTrace
 10
15.1821705202
 20
87.0417456647
 30
0.0
 11
18.1821705202
 21
86.1417456647
 31
0.0
 12
18.1821705202
 22
87.9417456647
 32
0.0
 13
18.1821705202
 23
87.9417456647
 33
0.0
  0
SOLID
  5
14E
330
14A
100
AcDbEntity
  8
0
  6
Continuous
 62
     7
370
     0
100
AcDbTrace
 10
47.1821705202
 20
87.0417456647
 30
0.0
 11
44.1821705202
 21
87.9417456647
 31
0.0
 12
44.1821705202
 22
86.1417456647
 32
0.0
 13
44.1821705202
 23
86.1417456647
 33
0.0
  0
LINE
  5
14F
330
14A
100
AcDbEntity
  8
0
  6
Continuous
 62
     7
370
     0
100
AcDbLine
 10
15.1821705202
 20
103.0417456647
 30
0.0
 11
15.1821705202
 21
86.0417456647
 31
0.0
  0
LINE
  5
150
330
14A
100
AcDbEntity
  8
0
  6
Continuous
 62
     7
370
     0
100
AcDbLine
 10
47.1821705202
 20
103.0417456647
 30
0.0
 11
47.1821705202
 21
86.0417456647
 31
0.0
  0
LINE
  5
151
330
14A
100
AcDbEntity
  8
0
  6
Continuous
 62
     7
370
     0
100
AcDbLine
 10
15.1821705202
 20
87.0417456647
 30
0.0
 11
47.1821705202
 21
87.0417456647
 31
0.0
  0
MTEXT
  5
152
330
14A
100
AcDbEntity
  8
0
  6
Continuous
 62
     7
370
     0
100
AcDbMText
 10
26.2956858526
 20
95.4908424608
 30
0.0
 40
6.6145833333
 41
0.0
 71
     1
 72
     1
  1
32
  7
SLDTEXTSTYLE0
 73
     1
 44
1.0
  0
ENDBLK
  5
14C
330
14A
100
AcDbEntity
  8
0
100
AcDbBlockEnd
  0
BLOCK
  5
155
330
154
100
AcDbEntity
  8
0
100
AcDbBlockBegin
  2
*D17
 70
     1
 71
     0
 10
0.0
 20
0.0
 30
0.0
  3
*D17
  1

  0
SOLID
  5
157
330
154
100
AcDbEntity
  8
0
  6
Continuous
 62
     7
370
     0
100
AcDbTrace
 10
57.1821705202
 20
123.0417456647
 30
0.0
 11
58.0821705202
 21
126.0417456647
 31
0.0
 12
56.2821705202
 22
126.0417456647
 32
0.0
 13
56.2821705202
 23
126.0417456647
 33
0.0
  0
SOLID
  5
158
330
154
100
AcDbEntity
  8
0
  6
Continuous
 62
     7
370
     0
100
AcDbTrace
 10
57.1821705202
 20
103.0417456647
 30
0.0
 11
56.2821705202
 21
100.0417456647
 31
0.0
 12
58.0821705202
 22
100.0417456647
 32
0.0
 13
58.0821705202
 23
100.0417456647
 33
0.0
  0
LINE
  5
159
330
154
100
AcDbEntity
  8
0
  6
Continuous
 62
     7
370
     0
100
AcDbLine
 10
47.1821705202
 20
123.0417456647
 30
0.0
 11
58.1821705202
 21
123.0417456647
 31
0.0
  0
LINE
  5
15A
330
154
100
AcDbEntity
  8
0
  6
Continuous
 62
     7
370
     0
100
AcDbLine
 10
47.1821705202
 20
103.0417456647
 30
0.0
 11
58.1821705202
 21
103.0417456647
 31
0.0
  0
LINE
  5
15B
330
154
100
AcDbEntity
  8
0
  6
Continuous
 62
     7
370
     0
100
AcDbLine
 10
57.1821705202
 20
123.0417456647
 30
0.0
 11
57.1821705202
 21
129.0417456647
 31
0.0
  0
LINE
  5
15C
330
154
100
AcDbEntity
  8
0
  6
Continuous
 62
     7
370
     0
100
AcDbLine
 10
57.1821705202
 20
123.0417456647
 30
0.0
 11
57.1821705202
 21
103.0417456647
 31
0.0
  0
LINE
  5
15D
330
154
100
AcDbEntity
  8
0
  6
Continuous
 62
     7
370
     0
100
AcDbLine
 10
57.1821705202
 20
103.0417456647
 30
0.0
 11
57.1821705202
 21
97.0417456647
 31
0.0
  0
MTEXT
  5
15E
330
154
100
AcDbEntity
  8
0
  6
Continuous
 62
     7
370
     0
100
AcDbMText
 10
48.7330737241
 20
108.1552609971
 30
0.0
 40
6.6145833333
 41
0.0
 71
     1
 72
     1
  1
20
  7
SLDTEXTSTYLE0
 11
-7.044197039909883E-15
 21
1.0
 31
0.0
 73
     1
 44
1.0
  0
ENDBLK
  5
156
330
154
100
AcDbEntity
  8
0
100
AcDbBlockEnd
  0
BLOCK
  5
161
330
160
100
AcDbEntity
  8
0
100
AcDbBlockBegin
  2
*D18
 70
     1
 71
     0
 10
0.0
 20
0.0
 30
0.0
  3
*D18
  1

  0
SOLID
  5
163
330
160
100
AcDbEntity
  8
0
  6
Continuous
 62
     7
370
     0
100
AcDbTrace
 10
23.6821705202
 20
133.0424093962
 30
0.0
 11
20.6821705202
 21
133.9424093962
 31
0.0
 12
20.6821705202
 22
132.1424093962
 32
0.0
 13
20.6821705202
 23
132.1424093962
 33
0.0
  0
SOLID
  5
164
330
160
100
AcDbEntity
  8
0
  6
Continuous
 62
     7
370
     0
100
AcDbTrace
 10
38.6821705202
 20
133.0424093962
 30
0.0
 11
41.6821705202
 21
132.1424093962
 31
0.0
 12
41.6821705202
 22
133.9424093962
 32
0.0
 13
41.6821705202
 23
133.9424093962
 33
0.0
  0
LINE
  5
165
330
160
100
AcDbEntity
  8
0
  6
Continuous
 62
     7
370
     0
100
AcDbLine
 10
23.6821705202
 20
124.0417456647
 30
0.0
 11
23.6821705202
 21
134.0424093962
 31
0.0
  0
LINE
  5
166
330
160
100
AcDbEntity
  8
0
  6
Continuous
 62
     7
370
     0
100
AcDbLine
 10
38.6821705202
 20
124.0417456647
 30
0.0
 11
38.6821705202
 21
134.0424093962
 31
0.0
  0
LINE
  5
167
330
160
100
AcDbEntity
  8
0
  6
Continuous
 62
     7
370
     0
100
AcDbLine
 10
23.6821705202
 20
133.0424093962
 30
0.0
 11
17.6821705202
 21
133.0424093962
 31
0.0
  0
LINE
  5
168
330
160
100
AcDbEntity
  8
0
  6
Continuous
 62
     7
370
     0
100
AcDbLine
 10
23.6821705202
 20
133.0424093962
 30
0.0
 11
38.6821705202
 21
133.0424093962
 31
0.0
  0
LINE
  5
169
330
160
100
AcDbEntity
  8
0
  6
Continuous
 62
     7
370
     0
100
AcDbLine
 10
38.6821705202
 20
133.0424093962
 30
0.0
 11
44.6821705202
 21
133.0424093962
 31
0.0
  0
MTEXT
  5
16A
330
160
100
AcDbEntity
  8
0
  6
Continuous
 62
     7
370
     0
100
AcDbMText
 10
26.2956858526
 20
141.4915061923
 30
0.0
 40
6.6145833333
 41
0.0
 71
     1
 72
     1
  1
15
  7
SLDTEXTSTYLE0
 73
     1
 44
1.0
  0
ENDBLK
  5
162
330
160
100
AcDbEntity
  8
0
100
AcDbBlockEnd
  0
BLOCK
  5
16D
330
16C
100
AcDbEntity
  8
0
100
AcDbBlockBegin
  2
*D19
 70
     1
 71
     0
 10
0.0
 20
0.0
 30
0.0
  3
*D19
  1

  0
SOLID
  5
16F
330
16C
100
AcDbEntity
  8
0
  6
Continuous
 62
     7
370
     0
100
AcDbTrace
 10
34.5872754335
 20
103.0417456647
 30
0.0
 11
33.6872754335
 21
100.0417456647
 31
0.0
 12
35.4872754335
 22
100.0417456647
 32
0.0
 13
35.4872754335
 23
100.0417456647
 33
0.0
  0
SOLID
  5
170
330
16C
100
AcDbEntity
  8
0
  6
Continuous
 62
     7
370
     0
100
AcDbTrace
 10
34.5872754335
 20
107.0417456647
 30
0.0
 11
35.4872754335
 21
110.0417456647
 31
0.0
 12
33.6872754335
 22
110.0417456647
 32
0.0
 13
33.6872754335
 23
110.0417456647
 33
0.0
  0
LINE
  5
171
330
16C
100
AcDbEntity
  8
0
  6
Continuous
 62
     7
370
     0
100
AcDbLine
 10
34.5872754335
 20
103.0417456647
 30
0.0
 11
34.5872754335
 21
97.0417456647
 31
0.0
  0
LINE
  5
172
330
16C
100
AcDbEntity
  8
0
  6
Continuous
 62
     7
370
     0
100
AcDbLine
 10
34.5872754335
 20
103.0417456647
 30
0.0
 11
34.5872754335
 21
107.0417456647
 31
0.0
  0
LINE
  5
173
330
16C
100
AcDbEntity
  8
0
  6
Continuous
 62
     7
370
     0
100
AcDbLine
 10
34.5872754335
 20
107.0417456647
 30
0.0
 11
34.5872754335
 21
120.0645088111
 31
0.0
  0
MTEXT
  5
174
330
16C
100
AcDbEntity
  8
0
  6
Continuous
 62
     7
370
     0
100
AcDbMText
 10
26.1381786374
 20
113.592115314
 30
0.0
 40
6.6145833333
 41
0.0
 71
     1
 72
     1
  1
4
  7
SLDTEXTSTYLE0
 11
6.123031769111886E-17
 21
1.0
 31
0.0
 73
     1
 44
1.0
  0
ENDBLK
  5
16E
330
16C
100
AcDbEntity
  8
0
100
AcDbBlockEnd
  0
ENDSEC
  0
SECTION
  2
ENTITIES
  0
LINE
  5
2F
330
1F
100
AcDbEntity
  8
0
  6
Continuous
 62
     7
370
    15
100
AcDbLine
 10
101.4706029579
 20
103.8465355856
 30
0.0
 11
101.4706029579
 21
123.8465355856
 31
0.0
  0
LINE
  5
30
330
1F
100
AcDbEntity
  8
0
  6
Continuous
 62
     7
370
    15
100
AcDbLine
 10
69.4706029579
 20
123.8465355856
 30
0.0
 11
69.4706029579
 21
103.8465355856
 31
0.0
  0
LINE
  5
31
330
1F
100
AcDbEntity
  8
0
  6
Continuous
 62
     7
370
    15
100
AcDbLine
 10
101.4706029579
 20
103.8465355856
 30
0.0
 11
100.4706029579
 21
103.8465355856
 31
0.0
  0
LINE
  5
32
330
1F
100
AcDbEntity
  8
0
  6
Continuous
 62
     7
370
    15
100
AcDbLine
 10
100.4706029579
 20
103.8465355856
 30
0.0
 11
100.4706029579
 21
123.8465355856
 31
0.0
  0
LINE
  5
33
330
1F
100
AcDbEntity
  8
0
  6
Continuous
 62
     7
370
    15
100
AcDbLine
 10
101.4706029579
 20
123.8465355856
 30
0.0
 11
100.4706029579
 21
123.8465355856
 31
0.0
  0
LINE
  5
34
330
1F
100
AcDbEntity
  8
0
  6
Continuous
 62
     7
370
    15
100
AcDbLine
 10
77.9706031298
 20
103.8465360326
 30
0.0
 11
70.4706029579
 21
103.8465355856
 31
0.0
  0
LINE
  5
35
330
1F
100
AcDbEntity
  8
0
  6
Continuous
 62
     7
370
    15
100
AcDbLine
 10
70.4706029579
 20
103.8465355856
 30
0.0
 11
70.4706029579
 21
123.8465355856
 31
0.0
  0
LINE
  5
36
330
1F
100
AcDbEntity
  8
0
  6
Continuous
 62
     7
370
    15
100
AcDbLine
 10
77.9706031298
 20
123.8465355856
 30
0.0
 11
70.4706029579
 21
123.8465355856
 31
0.0
  0
LINE
  5
37
330
1F
100
AcDbEntity
  8
0
  6
Continuous
 62
     7
370
    15
100
AcDbLine
 10
77.9706031298
 20
103.8465360326
 30
0.0
 11
77.9706031298
 21
123.8465355856
 31
0.0
  0
LINE
  5
38
330
1F
100
AcDbEntity
  8
0
  6
Continuous
 62
     7
370
    15
100
AcDbLine
 10
70.4706029579
 20
103.8465355856
 30
0.0
 11
69.4706029579
 21
103.8465355856
 31
0.0
  0
LINE
  5
39
330
1F
100
AcDbEntity
  8
0
  6
Continuous
 62
     7
370
    15
100
AcDbLine
 10
70.4706029579
 20
123.8465355856
 30
0.0
 11
69.4706029579
 21
123.8465355856
 31
0.0
  0
LINE
  5
3A
330
1F
100
AcDbEntity
  8
0
  6
Continuous
 62
     7
370
    15
100
AcDbLine
 10
100.4706029579
 20
103.8465355856
 30
0.0
 11
92.9706027946
 21
103.8465360326
 31
0.0
  0
LINE
  5
3B
330
1F
100
AcDbEntity
  8
0
  6
Continuous
 62
     7
370
    15
100
AcDbLine
 10
100.4706029579
 20
123.8465355856
 30
0.0
 11
92.9706027946
 21
123.8465355856
 31
0.0
  0
LINE
  5
3C
330
1F
100
AcDbEntity
  8
0
  6
Continuous
 62
     7
370
    15
100
AcDbLine
 10
92.9706027946
 20
103.8465360326
 30
0.0
 11
92.9706027946
 21
123.8465355856
 31
0.0
  0
CIRCLE
  5
3D
330
1F
100
AcDbEntity
  8
0
  6
Continuous
 62
     7
370
    15
100
AcDbCircle
 10
85.4706029622
 20
106.8465355856
 30
0.0
 40
1.75
  0
LINE
  5
3E
330
1F
100
AcDbEntity
  8
0
  6
Continuous
 62
     7
370
    15
100
AcDbLine
 10
92.9706027946
 20
103.8465360326
 30
0.0
 11
77.9706031298
 21
103.8465360326
 31
0.0
  0
LINE
  5
3F
330
1F
100
AcDbEntity
  8
0
  6
Continuous
 62
     7
370
    15
100
AcDbLine
 10
92.9706027946
 20
123.8465355856
 30
0.0
 11
77.9706031298
 21
123.8465355856
 31
0.0
  0
DIMENSION
  5
40
330
1F
100
AcDbEntity
  8
0
  6
Continuous
 62
     7
370
     0
100
AcDbDimension
  2
*D1
 10
87.2206029622
 20
133.8465355856
 30
0.0
 11
85.0630556579
 21
133.8465355856
 31
0.0
 70
   160
  1
%%c3,5
 71
     1
 42
-1.0
  3
SLDDIMSTYLE0
100
AcDbAlignedDimension
 13
83.7206029622
 23
106.8465355856
 33
0.0
 14
87.2206029622
 24
106.8465355856
 34
0.0
100
AcDbRotatedDimension
  0
DIMENSION
  5
4F
330
1F
100
AcDbEntity
  8
0
  6
Continuous
 62
     7
370
     0
100
AcDbDimension
  2
*D2
 10
107.0153255013
 20
106.8465355856
 30
0.0
 11
107.0153255013
 21
93.8465355856
 31
0.0
 70
   160
 71
     1
 42
-1.0
  3
SLDDIMSTYLE1
100
AcDbAlignedDimension
 13
100.4706029579
 23
103.8465355856
 33
0.0
 14
85.4706029622
 24
106.8465355856
 34
0.0
 50
90.0
100
AcDbRotatedDimension
  0
DIMENSION
  5
5C
330
1F
100
AcDbEntity
  8
0
  6
Continuous
 62
     7
370
     0
100
AcDbDimension
  2
*D3
 10
117.4706029579
 20
123.8465355856
 30
0.0
 11
117.4706029579
 21
113.6782138728
 31
0.0
 70
   160
 71
     1
 42
-1.0
  3
SLDDIMSTYLE1
100
AcDbAlignedDimension
 13
101.4706029579
 23
103.8465355856
 33
0.0
 14
101.4706029579
 24
123.8465355856
 34
0.0
 50
90.0
100
AcDbRotatedDimension
  0
LINE
  5
68
330
1F
100
AcDbEntity
  8
0
  6
Continuous
 62
     7
370
    15
100
AcDbLine
 10
166.587066166
 20
104.0966382509
 30
0.0
 11
166.587066166
 21
139.0966382509
 31
0.0
  0
LINE
  5
69
330
1F
100
AcDbEntity
  8
0
  6
Continuous
 62
     7
370
    15
100
AcDbLine
 10
134.587066166
 20
139.0966382509
 30
0.0
 11
134.587066166
 21
104.0966382509
 31
0.0
  0
LINE
  5
6A
330
1F
100
AcDbEntity
  8
0
  6
Continuous
 62
     7
370
    15
100
AcDbLine
 10
165.587066166
 20
104.0966382509
 30
0.0
 11
165.587066166
 21
139.0966382509
 31
0.0
  0
LINE
  5
6B
330
1F
100
AcDbEntity
  8
0
  6
Continuous
 62
     7
370
    15
100
AcDbLine
 10
165.587066166
 20
104.0966382509
 30
0.0
 11
158.0870660026
 21
104.0966381019
 31
0.0
  0
LINE
  5
6C
330
1F
100
AcDbEntity
  8
0
  6
Continuous
 62
     7
370
    15
100
AcDbLine
 10
158.0870660026
 20
104.0966381019
 30
0.0
 11
158.0870660026
 21
139.0966382509
 31
0.0
  0
LINE
  5
6D
330
1F
100
AcDbEntity
  8
0
  6
Continuous
 62
     7
370
    15
100
AcDbLine
 10
165.587066166
 20
139.0966382509
 30
0.0
 11
158.0870660026
 21
139.0966382509
 31
0.0
  0
LINE
  5
6E
330
1F
100
AcDbEntity
  8
0
  6
Continuous
 62
     7
370
    15
100
AcDbLine
 10
143.0870663379
 20
104.0966381019
 30
0.0
 11
143.0870663379
 21
139.0966382509
 31
0.0
  0
LINE
  5
6F
330
1F
100
AcDbEntity
  8
0
  6
Continuous
 62
     7
370
    15
100
AcDbLine
 10
143.0870663379
 20
104.0966381019
 30
0.0
 11
135.587066166
 21
104.0966382509
 31
0.0
  0
LINE
  5
70
330
1F
100
AcDbEntity
  8
0
  6
Continuous
 62
     7
370
    15
100
AcDbLine
 10
135.587066166
 20
104.0966382509
 30
0.0
 11
135.587066166
 21
139.0966382509
 31
0.0
  0
LINE
  5
71
330
1F
100
AcDbEntity
  8
0
  6
Continuous
 62
     7
370
    15
100
AcDbLine
 10
143.0870663379
 20
139.0966382509
 30
0.0
 11
135.587066166
 21
139.0966382509
 31
0.0
  0
LINE
  5
72
330
1F
100
AcDbEntity
  8
0
  6
Continuous
 62
     7
370
    15
100
AcDbLine
 10
166.587066166
 20
104.0966382509
 30
0.0
 11
165.587066166
 21
104.0966382509
 31
0.0
  0
LINE
  5
73
330
1F
100
AcDbEntity
  8
0
  6
Continuous
 62
     7
370
    15
100
AcDbLine
 10
166.587066166
 20
139.0966382509
 30
0.0
 11
165.587066166
 21
139.0966382509
 31
0.0
  0
LINE
  5
74
330
1F
100
AcDbEntity
  8
0
  6
Continuous
 62
     7
370
    15
100
AcDbLine
 10
135.587066166
 20
104.0966382509
 30
0.0
 11
134.587066166
 21
104.0966382509
 31
0.0
  0
LINE
  5
75
330
1F
100
AcDbEntity
  8
0
  6
Continuous
 62
     7
370
    15
100
AcDbLine
 10
135.587066166
 20
139.0966382509
 30
0.0
 11
134.587066166
 21
139.0966382509
 31
0.0
  0
SPLINE
  5
76
330
1F
100
AcDbEntity
  8
0
  6
Continuous
 62
     7
370
    15
100
AcDbSpline
210
0.0
220
0.0
230
1.0
 70
    12
 71
     3
 72
    24
 73
    20
 74
     0
 42
0.00000001
 43
0.00000001
 40
0.0
 40
0.0
 40
0.0
 40
0.0
 40
0.0548878046136227
 40
0.1107264155680187
 40
0.1699000979694597
 40
0.2310059290387159
 40
0.2921119431095647
 40
0.3512854339114104
 40
0.4129347770555787
 40
0.472982180567372
 40
0.5330299153307033
 40
0.5946791468098677
 40
0.6538524778565277
 40
0.7149586101135821
 40
0.776064424547623
 40
0.8352379153494687
 40
0.8968871864302826
 40
0.9569347933791662
 40
1.0
 40
1.0
 40
1.0
 40
1.0
 10
149.9891949123202
 20
113.5839503889863
 30
0.0
 41
1.0
 10
149.9357572196265
 20
113.6612082258717
 30
0.0
 41
1.0
 10
149.8279561477884
 20
113.8170622158989
 30
0.0
 41
1.0
 10
149.7820908515461
 20
114.1103211834796
 30
0.0
 41
1.0
 10
149.8418467167151
 20
114.4090413428768
 30
0.0
 41
1.0
 10
150.0180081411903
 20
114.670947569455
 30
0.0
 41
1.0
 10
150.2811000139186
 20
114.8443110732525
 30
0.0
 41
1.0
 10
150.5912577809798
 20
114.9046739091051
 30
0.0
 41
1.0
 10
150.8993353406566
 20
114.8422162476285
 30
0.0
 41
1.0
 10
151.1608145059631
 20
114.6652793076507
 30
0.0
 41
1.0
 10
151.3354084680373
 20
114.402230586951
 30
0.0
 41
1.0
 10
151.3950988891044
 20
114.0935969863962
 30
0.0
 41
1.0
 10
151.3319990704324
 20
113.7840272965456
 30
0.0
 41
1.0
 10
151.1561614312421
 20
113.5223603166527
 30
0.0
 41
1.0
 10
150.8931755875575
 20
113.3490483504419
 30
0.0
 41
1.0
 10
150.582276660951
 20
113.2882542001534
 30
0.0
 41
1.0
 10
150.2771308977048
 20
113.3524277787695
 30
0.0
 41
1.0
 10
150.0303032466512
 20
113.5070967013642
 30
0.0
 41
1.0
 10
149.9430897320642
 20
113.6604630881121
 30
0.0
 41
1.0
 10
149.9066648892557
 20
113.7245167678182
 30
0.0
 41
1.0
  0
LWPOLYLINE
  5
77
330
1F
100
AcDbEntity
  8
0
  6
Continuous
 62
     7
370
    15
100
AcDbPolyline
 90
        8
 70
   128
 43
0.0
 10
150.7367365037
 20
115.3376456981
 10
150.320813066
 20
115.2502522504
 10
149.9613203695
 20
115.0188912338
 10
149.7479302114
 20
114.7237569725
 10
149.6478192047
 20
114.3813990688
 10
149.6624821219
 20
114.0860338395
 10
149.7758874092
 20
113.8125025367
 10
149.9891949123
 20
113.583950389
  0
LINE
  5
78
330
1F
100
AcDbEntity
  8
0
  6
Continuous
 62
     7
370
    15
100
AcDbLine
 10
154.3370661702
 20
131.3466382509
 30
0.0
 11
146.8370661702
 21
131.3466382509
 31
0.0
  0
ARC
  5
79
330
1F
100
AcDbEntity
  8
0
  6
Continuous
 62
     7
370
    15
100
AcDbCircle
 10
146.8370661702
 20
129.0966382509
 30
0.0
 40
2.25
100
AcDbArc
 50
90.0
 51
180.0
  0
ARC
  5
7A
330
1F
100
AcDbEntity
  8
0
  6
Continuous
 62
     7
370
    15
100
AcDbCircle
 10
146.8370661702
 20
129.0966382509
 30
0.0
 40
2.25
100
AcDbArc
 50
180.0
 51
270.0
  0
LINE
  5
7B
330
1F
100
AcDbEntity
  8
0
  6
Continuous
 62
     7
370
    15
100
AcDbLine
 10
146.8370661702
 20
126.8466382509
 30
0.0
 11
154.3370661702
 21
126.8466382509
 31
0.0
  0
ARC
  5
7C
330
1F
100
AcDbEntity
  8
0
  6
Continuous
 62
     7
370
    15
100
AcDbCircle
 10
154.3370661702
 20
129.0966382509
 30
0.0
 40
2.25
100
AcDbArc
 50
270.0
 51
0.0
  0
ARC
  5
7D
330
1F
100
AcDbEntity
  8
0
  6
Continuous
 62
     7
370
    15
100
AcDbCircle
 10
154.3370661702
 20
129.0966382509
 30
0.0
 40
2.25
100
AcDbArc
 50
0.0
 51
90.0
  0
CIRCLE
  5
7E
330
1F
100
AcDbEntity
  8
0
  6
Continuous
 62
     7
370
    15
100
AcDbCircle
 10
150.5870661702
 20
114.0966382509
 30
0.0
 40
1.350000000000009
  0
LINE
  5
7F
330
1F
100
AcDbEntity
  8
0
  6
Continuous
 62
     7
370
    15
100
AcDbLine
 10
158.0870660026
 20
104.0966381019
 30
0.0
 11
143.0870663379
 21
104.0966381019
 31
0.0
  0
LINE
  5
80
330
1F
100
AcDbEntity
  8
0
  6
Continuous
 62
     7
370
    15
100
AcDbLine
 10
158.0870660026
 20
139.0966382509
 30
0.0
 11
143.0870663379
 21
139.0966382509
 31
0.0
  0
CIRCLE
  5
81
330
1F
100
AcDbEntity
  8
0
  6
Continuous
 62
     7
370
    15
100
AcDbCircle
 10
150.5870661702
 20
114.0966382509
 30
0.0
 40
1.25
  0
ARC
  5
82
330
1F
100
AcDbEntity
  8
0
  6
Continuous
 62
     7
370
    15
100
AcDbCircle
 10
151.0039132692
 20
113.6726102091
 30
0.0
 40
1.018584266293799
100
AcDbArc
 50
184.993469928
 51
232.6463628764
  0
DIMENSION
  5
83
330
1F
100
AcDbEntity
  8
0
  6
Continuous
 62
     7
370
     0
100
AcDbDimension
  2
*D4
 10
176.587066166
 20
114.0966382509
 30
0.0
 11
176.587066166
 21
109.2314900346
 31
0.0
 70
   160
 71
     1
 42
-1.0
  3
SLDDIMSTYLE1
100
AcDbAlignedDimension
 13
165.587066166
 23
104.0966382509
 33
0.0
 14
153.4370661702
 24
114.0966382509
 34
0.0
 50
90.0
100
AcDbRotatedDimension
  0
DIMENSION
  5
8F
330
1F
100
AcDbEntity
  8
0
  6
Continuous
 62
     7
370
     0
100
AcDbDimension
  2
*D5
 10
176.587066166
 20
114.0966382509
 30
0.0
 11
176.587066166
 21
122.7641618515
 31
0.0
 70
   160
 71
     1
 42
-1.0
  3
SLDDIMSTYLE1
100
AcDbAlignedDimension
 13
156.5870661702
 23
129.0966382509
 33
0.0
 14
153.4370661702
 24
114.0966382509
 34
0.0
 50
90.0
100
AcDbRotatedDimension
  0
DIMENSION
  5
9B
330
1F
100
AcDbEntity
  8
0
  6
Continuous
 62
     7
370
     0
100
AcDbDimension
  2
*D6
 10
188.587066166
 20
139.0966382509
 30
0.0
 11
188.587066166
 21
122.7641618515
 31
0.0
 70
   160
 71
     1
 42
-1.0
  3
SLDDIMSTYLE1
100
AcDbAlignedDimension
 13
166.587066166
 23
104.0966382509
 33
0.0
 14
166.587066166
 24
139.0966382509
 34
0.0
 50
90.0
100
AcDbRotatedDimension
  0
DIMENSION
  5
A5
330
1F
100
AcDbEntity
  8
0
  6
Continuous
 62
     7
370
     0
100
AcDbDimension
  2
*D7
 10
144.5870661702
 20
142.1101645194
 30
0.0
 11
150.7438586717
 21
142.1101645194
 31
0.0
 70
   160
 71
     1
 42
-1.0
  3
SLDDIMSTYLE1
100
AcDbAlignedDimension
 13
156.5870661702
 23
129.0966382509
 33
0.0
 14
144.5870661702
 24
129.0966382509
 34
0.0
100
AcDbRotatedDimension
  0
DIMENSION
  5
B1
330
1F
100
AcDbEntity
  8
0
  6
Continuous
 62
     7
370
     0
100
AcDbDimension
  2
*D8
 10
131.3025554981
 20
126.8466382509
 30
0.0
 11
131.3025554981
 21
128.9586947255
 31
0.0
 70
   160
  1
4,5
 71
     1
 42
-1.0
  3
SLDDIMSTYLE1
100
AcDbAlignedDimension
 13
146.8370661702
 23
131.3466382509
 33
0.0
 14
146.8370661702
 24
126.8466382509
 34
0.0
 50
90.0
100
AcDbRotatedDimension
  0
MTEXT
  5
BD
330
1F
100
AcDbEntity
  8
0
  6
Continuous
 62
     7
370
     0
100
AcDbMText
 10
131.1324062911
 20
99.6442340249
 30
-5.989
 40
6.6145833333
 41
0.0
 71
     1
 72
     1
  1
M3
  7
SLDTEXTSTYLE0
 73
     1
 44
1.0
  0
LEADER
  5
BF
330
1F
100
AcDbEntity
  8
0
  6
Continuous
 62
     7
370
     0
100
AcDbLeader
  3
SLDDIMSTYLE2
 76
     2
 10
150.3264462683
 20
112.772033681
 30
0.0
 10
144.4239025434
 20
100.0132414451
 30
0.0
  0
INSERT
  5
C7
330
1F
100
AcDbEntity
  8
0
  6
Continuous
 62
     7
370
     0
100
AcDbBlockReference
  2
SW_CENTERMARKSYMBOL_0
 10
150.5870661702
 20
114.0966382509
 30
0.0
  0
LINE
  5
C8
330
1F
100
AcDbEntity
  8
0
  6
Continuous
 62
     7
370
    15
100
AcDbLine
 10
240.5841261923
 20
104.9832091243
 30
0.0
 11
240.5841261923
 21
154.9832091243
 31
0.0
  0
LINE
  5
C9
330
1F
100
AcDbEntity
  8
0
  6
Continuous
 62
     7
370
    15
100
AcDbLine
 10
208.5841261923
 20
154.9832091243
 30
0.0
 11
208.5841261923
 21
104.9832091243
 31
0.0
  0
LINE
  5
CA
330
1F
100
AcDbEntity
  8
0
  6
Continuous
 62
     7
370
    15
100
AcDbLine
 10
239.5841261923
 20
104.9832091243
 30
0.0
 11
239.5841261923
 21
154.9832091243
 31
0.0
  0
LINE
  5
CB
330
1F
100
AcDbEntity
  8
0
  6
Continuous
 62
     7
370
    15
100
AcDbLine
 10
239.5841261923
 20
104.9832091243
 30
0.0
 11
232.0841260289
 21
104.9832083793
 31
0.0
  0
LINE
  5
CC
330
1F
100
AcDbEntity
  8
0
  6
Continuous
 62
     7
370
    15
100
AcDbLine
 10
232.0841260289
 20
104.9832083793
 30
0.0
 11
232.0841260289
 21
154.9832091243
 31
0.0
  0
LINE
  5
CD
330
1F
100
AcDbEntity
  8
0
  6
Continuous
 62
     7
370
    15
100
AcDbLine
 10
239.5841261923
 20
154.9832091243
 30
0.0
 11
232.0841260289
 21
154.9832091243
 31
0.0
  0
LINE
  5
CE
330
1F
100
AcDbEntity
  8
0
  6
Continuous
 62
     7
370
    15
100
AcDbLine
 10
217.0841263642
 20
104.9832083793
 30
0.0
 11
217.0841263642
 21
154.9832091243
 31
0.0
  0
LINE
  5
CF
330
1F
100
AcDbEntity
  8
0
  6
Continuous
 62
     7
370
    15
100
AcDbLine
 10
217.0841263642
 20
104.9832083793
 30
0.0
 11
209.5841261923
 21
104.9832091243
 31
0.0
  0
LINE
  5
D0
330
1F
100
AcDbEntity
  8
0
  6
Continuous
 62
     7
370
    15
100
AcDbLine
 10
209.5841261923
 20
104.9832091243
 30
0.0
 11
209.5841261923
 21
154.9832091243
 31
0.0
  0
LINE
  5
D1
330
1F
100
AcDbEntity
  8
0
  6
Continuous
 62
     7
370
    15
100
AcDbLine
 10
217.0841263642
 20
154.9832091243
 30
0.0
 11
209.5841261923
 21
154.9832091243
 31
0.0
  0
LINE
  5
D2
330
1F
100
AcDbEntity
  8
0
  6
Continuous
 62
     7
370
    15
100
AcDbLine
 10
240.5841261923
 20
104.9832091243
 30
0.0
 11
239.5841261923
 21
104.9832091243
 31
0.0
  0
LINE
  5
D3
330
1F
100
AcDbEntity
  8
0
  6
Continuous
 62
     7
370
    15
100
AcDbLine
 10
240.5841261923
 20
154.9832091243
 30
0.0
 11
239.5841261923
 21
154.9832091243
 31
0.0
  0
LINE
  5
D4
330
1F
100
AcDbEntity
  8
0
  6
Continuous
 62
     7
370
    15
100
AcDbLine
 10
209.5841261923
 20
104.9832091243
 30
0.0
 11
208.5841261923
 21
104.9832091243
 31
0.0
  0
LINE
  5
D5
330
1F
100
AcDbEntity
  8
0
  6
Continuous
 62
     7
370
    15
100
AcDbLine
 10
209.5841261923
 20
154.9832091243
 30
0.0
 11
208.5841261923
 21
154.9832091243
 31
0.0
  0
SPLINE
  5
D6
330
1F
100
AcDbEntity
  8
0
  6
Continuous
 62
     7
370
    15
100
AcDbSpline
210
0.0
220
0.0
230
1.0
 70
    12
 71
     3
 72
    44
 73
    40
 74
     0
 42
0.00000001
 43
0.00000001
 40
0.0
 40
0.0
 40
0.0
 40
0.0
 40
0.0625000000000046
 40
0.0625000000000046
 40
0.1250000000000093
 40
0.1250000000000093
 40
0.1875000000000139
 40
0.1875000000000139
 40
0.2187500000000142
 40
0.2187500000000142
 40
0.2500000000000146
 40
0.2500000000000146
 40
0.3125000000000152
 40
0.3125000000000152
 40
0.3437500000000145
 40
0.3437500000000145
 40
0.3750000000000138
 40
0.3750000000000138
 40
0.4375000000000123
 40
0.4375000000000123
 40
0.5000000000000109
 40
0.5000000000000109
 40
0.5312500000000102
 40
0.5312500000000102
 40
0.5625000000000095
 40
0.5625000000000095
 40
0.6250000000000081
 40
0.6250000000000081
 40
0.6875000000000068
 40
0.6875000000000068
 40
0.7500000000000054
 40
0.7500000000000054
 40
0.8125000000000041
 40
0.8125000000000041
 40
0.8750000000000027
 40
0.8750000000000027
 40
0.9375000000000013
 40
0.9375000000000013
 40
1.0
 40
1.0
 40
1.0
 40
1.0
 10
224.1668918608206
 20
121.7888564653318
 30
0.0
 41
1.0
 10
224.071986288105
 20
121.8458849264086
 30
0.0
 41
1.0
 10
223.9939306838909
 20
121.917729053277
 30
0.0
 41
1.0
 10
223.8654184493125
 20
122.093905094059
 30
0.0
 41
1.0
 10
223.8172135841056
 20
122.1989852123201
 30
0.0
 41
1.0
 10
223.7687363054696
 20
122.4193537188599
 30
0.0
 41
1.0
 10
223.7685697898721
 20
122.5338593654961
 30
0.0
 41
1.0
 10
223.7994963568873
 20
122.6916270195344
 30
0.0
 41
1.0
 10
223.8145646367129
 20
122.7419126974288
 30
0.0
 41
1.0
 10
223.8559274062799
 20
122.842206415349
 30
0.0
 41
1.0
 10
223.8821233591277
 20
122.891288264688
 30
0.0
 41
1.0
 10
223.9762117415885
 20
123.0301606502595
 30
0.0
 41
1.0
 10
224.0601139961399
 20
123.1109387676623
 30
0.0
 41
1.0
 10
224.2018674521294
 20
123.1995848320409
 30
0.0
 41
1.0
 10
224.2516203752312
 20
123.2238540122491
 30
0.0
 41
1.0
 10
224.3526725305443
 20
123.2613763118283
 30
0.0
 41
1.0
 10
224.4032937206576
 20
123.2746767057993
 30
0.0
 41
1.0
 10
224.5631415143977
 20
123.3001635861614
 30
0.0
 41
1.0
 10
224.6780240693242
 20
123.2956943958846
 30
0.0
 41
1.0
 10
224.8965444003716
 20
123.2390821248509
 30
0.0
 41
1.0
 10
224.9994127197879
 20
123.1871215658971
 30
0.0
 41
1.0
 10
225.1272366859909
 20
123.0866803176225
 30
0.0
 41
1.0
 10
225.1650399464664
 20
123.0503315496479
 30
0.0
 41
1.0
 10
225.2347601992538
 20
122.9687645018762
 30
0.0
 41
1.0
 10
225.2663348344064
 20
122.9235405810219
 30
0.0
 41
1.0
 10
225.3469695341843
 20
122.777558226221
 30
0.0
 41
1.0
 10
225.3811564908437
 20
122.6662592107973
 30
0.0
 41
1.0
 10
225.4009192802665
 20
122.4430384562679
 30
0.0
 41
1.0
 10
225.3874494010689
 20
122.3340120880071
 30
0.0
 41
1.0
 10
225.3214452200307
 20
122.1311458002174
 30
0.0
 41
1.0
 10
225.2658909864898
 20
122.0314123540892
 30
0.0
 41
1.0
 10
225.1165945778731
 20
121.8624024126219
 30
0.0
 41
1.0
 10
225.023297900974
 20
121.7937766512451
 30
0.0
 41
1.0
 10
224.8245938210483
 20
121.7019510091793
 30
0.0
 41
1.0
 10
224.721696556777
 20
121.6773125043747
 30
0.0
 41
1.0
 10
224.5010513747991
 20
121.6698865929382
 30
0.0
 41
1.0
 10
224.3865217987489
 20
121.6896007269472
 30
0.0
 41
1.0
 10
224.1777774829188
 20
121.7734609229476
 30
0.0
 41
1.0
 10
224.0842058340463
 20
121.8371597011312
 30
0.0
 41
1.0
 10
224.0099229509597
 20
121.9118066928262
 30
0.0
 41
1.0
  0
LWPOLYLINE
  5
D7
330
1F
100
AcDbEntity
  8
0
  6
Continuous
 62
     7
370
    15
100
AcDbPolyline
 90
        9
 70
   128
 43
0.0
 10
224.7051784861
 20
123.7273343415
 10
224.2879376199
 20
123.6399874599
 10
223.9271021017
 20
123.4086506577
 10
223.7073207425
 20
123.1104299934
 10
223.5998602619
 20
122.7585316212
 10
223.6123968532
 20
122.4460281939
 10
223.7282379565
 20
122.1553884954
 10
223.9323262393
 20
121.922278455
 10
224.1668918496
 20
121.788857183
  0
LINE
  5
D8
330
1F
100
AcDbEntity
  8
0
  6
Continuous
 62
     7
370
    15
100
AcDbLine
 10
228.3341261965
 20
139.7332091243
 30
0.0
 11
220.8341261965
 21
139.7332091243
 31
0.0
  0
ARC
  5
D9
330
1F
100
AcDbEntity
  8
0
  6
Continuous
 62
     7
370
    15
100
AcDbCircle
 10
220.8341261965
 20
137.4832091243
 30
0.0
 40
2.250000000000028
100
AcDbArc
 50
90.0
 51
180.0
  0
ARC
  5
DA
330
1F
100
AcDbEntity
  8
0
  6
Continuous
 62
     7
370
    15
100
AcDbCircle
 10
220.8341261965
 20
137.4832091243
 30
0.0
 40
2.25
100
AcDbArc
 50
180.0
 51
270.0
  0
LINE
  5
DB
330
1F
100
AcDbEntity
  8
0
  6
Continuous
 62
     7
370
    15
100
AcDbLine
 10
220.8341261965
 20
135.2332091243
 30
0.0
 11
228.3341261965
 21
135.2332091243
 31
0.0
  0
ARC
  5
DC
330
1F
100
AcDbEntity
  8
0
  6
Continuous
 62
     7
370
    15
100
AcDbCircle
 10
228.3341261965
 20
137.4832091243
 30
0.0
 40
2.25
100
AcDbArc
 50
270.0
 51
0.0
  0
ARC
  5
DD
330
1F
100
AcDbEntity
  8
0
  6
Continuous
 62
     7
370
    15
100
AcDbCircle
 10
228.3341261965
 20
137.4832091243
 30
0.0
 40
2.250000000000028
100
AcDbArc
 50
0.0
 51
90.0
  0
CIRCLE
  5
DE
330
1F
100
AcDbEntity
  8
0
  6
Continuous
 62
     7
370
    15
100
AcDbCircle
 10
224.5841261965
 20
122.4832091243
 30
0.0
 40
1.350000000000009
  0
LINE
  5
DF
330
1F
100
AcDbEntity
  8
0
  6
Continuous
 62
     7
370
    15
100
AcDbLine
 10
232.0841260289
 20
104.9832083793
 30
0.0
 11
217.0841263642
 21
104.9832083793
 31
0.0
  0
LINE
  5
E0
330
1F
100
AcDbEntity
  8
0
  6
Continuous
 62
     7
370
    15
100
AcDbLine
 10
232.0841260289
 20
154.9832091243
 30
0.0
 11
217.0841263642
 21
154.9832091243
 31
0.0
  0
CIRCLE
  5
E1
330
1F
100
AcDbEntity
  8
0
  6
Continuous
 62
     7
370
    15
100
AcDbCircle
 10
224.5841261965
 20
122.4832091243
 30
0.0
 40
1.25
  0
ARC
  5
E2
330
1F
100
AcDbEntity
  8
0
  6
Continuous
 62
     7
370
    15
100
AcDbCircle
 10
225.1859474515
 20
121.8841463603
 30
0.0
 40
1.023501024465801
100
AcDbArc
 50
185.3420423975
 51
218.3213803602
  0
DIMENSION
  5
E3
330
1F
100
AcDbEntity
  8
0
  6
Continuous
 62
     7
370
     0
100
AcDbDimension
  2
*D10
 10
230.5841261965
 20
157.1074048991
 30
0.0
 11
224.8211019295
 21
157.1074048991
 31
0.0
 70
   160
 71
     1
 42
-1.0
  3
SLDDIMSTYLE1
100
AcDbAlignedDimension
 13
218.5841261965
 23
137.4832091243
 33
0.0
 14
230.5841261965
 24
137.4832091243
 34
0.0
100
AcDbRotatedDimension
  0
DIMENSION
  5
EF
330
1F
100
AcDbEntity
  8
0
  6
Continuous
 62
     7
370
     0
100
AcDbDimension
  2
*D11
 10
203.2884128717
 20
135.2332091243
 30
0.0
 11
203.2884128717
 21
136.9390292313
 31
0.0
 70
   160
  1
4,5
 71
     1
 42
-1.0
  3
SLDDIMSTYLE1
100
AcDbAlignedDimension
 13
220.8341261965
 23
139.7332091243
 33
0.0
 14
220.8341261965
 24
135.2332091243
 34
0.0
 50
90.0
100
AcDbRotatedDimension
  0
DIMENSION
  5
FB
330
1F
100
AcDbEntity
  8
0
  6
Continuous
 62
     7
370
     0
100
AcDbDimension
  2
*D12
 10
256.5841261923
 20
122.4832091243
 30
0.0
 11
256.5841261923
 21
113.5906904795
 31
0.0
 70
   160
  1
17,5
 71
     1
 42
-1.0
  3
SLDDIMSTYLE1
100
AcDbAlignedDimension
 13
239.5841261923
 23
104.9832091243
 33
0.0
 14
227.4341261965
 24
122.4832091243
 34
0.0
 50
90.0
100
AcDbRotatedDimension
  0
DIMENSION
  5
107
330
1F
100
AcDbEntity
  8
0
  6
Continuous
 62
     7
370
     0
100
AcDbDimension
  2
*D13
 10
256.5841261923
 20
122.4832091243
 30
0.0
 11
256.5841261923
 21
130.8067528458
 31
0.0
 70
   160
 71
     1
 42
-1.0
  3
SLDDIMSTYLE1
100
AcDbAlignedDimension
 13
230.5841261965
 23
137.4832091243
 33
0.0
 14
227.4341261965
 24
122.4832091243
 34
0.0
 50
90.0
100
AcDbRotatedDimension
  0
DIMENSION
  5
113
330
1F
100
AcDbEntity
  8
0
  6
Continuous
 62
     7
370
     0
100
AcDbDimension
  2
*D14
 10
268.5841261923
 20
154.9832091243
 30
0.0
 11
268.5841261923
 21
130.8067528458
 31
0.0
 70
   160
 71
     1
 42
-1.0
  3
SLDDIMSTYLE1
100
AcDbAlignedDimension
 13
240.5841261923
 23
104.9832091243
 33
0.0
 14
240.5841261923
 24
154.9832091243
 34
0.0
 50
90.0
100
AcDbRotatedDimension
  0
MTEXT
  5
11D
330
1F
100
AcDbEntity
  8
0
  6
Continuous
 62
     7
370
     0
100
AcDbMText
 10
207.2379463636
 20
98.9991115184
 30
-6.189
 40
6.6145833333
 41
0.0
 71
     1
 72
     1
  1
M3
  7
SLDTEXTSTYLE0
 73
     1
 44
1.0
  0
LEADER
  5
11E
330
1F
100
AcDbEntity
  8
0
  6
Continuous
 62
     7
370
     0
100
AcDbLeader
  3
SLDDIMSTYLE2
 76
     2
 10
224.3829648019
 20
121.2495016658
 30
0.0
 10
214.1330830347
 20
99.3672262139
 30
0.0
  0
INSERT
  5
126
330
1F
100
AcDbEntity
  8
0
  6
Continuous
 62
     7
370
     0
100
AcDbBlockReference
  2
SW_CENTERMARKSYMBOL_1
 10
224.5841261965
 20
122.4832091243
 30
0.0
  0
POINT
  5
127
330
1F
100
AcDbEntity
  8
0
  6
Continuous
 62
     7
370
     0
100
AcDbPoint
 10
15.1821705202
 20
104.0417456647
 30
0.0
  0
POINT
  5
128
330
1F
100
AcDbEntity
  8
0
  6
Continuous
 62
     7
370
     0
100
AcDbPoint
 10
47.1821705202
 20
104.0417456647
 30
0.0
  0
LINE
  5
129
330
1F
100
AcDbEntity
  8
0
  6
Continuous
 62
     7
370
    15
100
AcDbLine
 10
16.1821705202
 20
123.0417456647
 30
0.0
 11
23.6821706836
 21
123.0417452204
 31
0.0
  0
ARC
  5
12A
330
1F
100
AcDbEntity
  8
0
  6
Continuous
 62
     7
370
    15
100
AcDbCircle
 10
16.1821705202
 20
122.0417456647
 30
0.0
 40
1.0
100
AcDbArc
 50
90.0
 51
270.0
  0
LINE
  5
12B
330
1F
100
AcDbEntity
  8
0
  6
Continuous
 62
     7
370
    15
100
AcDbLine
 10
21.6821708214
 20
121.0417448926
 30
0.0
 11
16.1821705202
 21
121.0417456647
 31
0.0
  0
LINE
  5
12C
330
1F
100
AcDbEntity
  8
0
  6
Continuous
 62
     7
370
    15
100
AcDbLine
 10
21.6821708214
 20
117.0417460996
 30
0.0
 11
21.6821708214
 21
121.0417448926
 31
0.0
  0
LINE
  5
12D
330
1F
100
AcDbEntity
  8
0
  6
Continuous
 62
     7
370
    15
100
AcDbLine
 10
16.1821705202
 20
117.0417456647
 30
0.0
 11
21.6821708214
 21
117.0417460996
 31
0.0
  0
ARC
  5
12E
330
1F
100
AcDbEntity
  8
0
  6
Continuous
 62
     7
370
    15
100
AcDbCircle
 10
16.1821705202
 20
116.0417456647
 30
0.0
 40
1.0
100
AcDbArc
 50
90.0
 51
270.0
  0
LINE
  5
12F
330
1F
100
AcDbEntity
  8
0
  6
Continuous
 62
     7
370
    15
100
AcDbLine
 10
21.6821708214
 20
115.0417457718
 30
0.0
 11
16.1821705202
 21
115.0417456647
 31
0.0
  0
LINE
  5
130
330
1F
100
AcDbEntity
  8
0
  6
Continuous
 62
     7
370
    15
100
AcDbLine
 10
21.6821708214
 20
111.0417460475
 30
0.0
 11
21.6821708214
 21
115.0417457718
 31
0.0
  0
LINE
  5
131
330
1F
100
AcDbEntity
  8
0
  6
Continuous
 62
     7
370
    15
100
AcDbLine
 10
16.1821705202
 20
111.0417456647
 30
0.0
 11
21.6821708214
 21
111.0417460475
 31
0.0
  0
ARC
  5
132
330
1F
100
AcDbEntity
  8
0
  6
Continuous
 62
     7
370
    15
100
AcDbCircle
 10
16.1821705202
 20
110.0417456647
 30
0.0
 40
1.0
100
AcDbArc
 50
90.0
 51
270.0
  0
LINE
  5
133
330
1F
100
AcDbEntity
  8
0
  6
Continuous
 62
     7
370
    15
100
AcDbLine
 10
21.6821708214
 20
109.0417457196
 30
0.0
 11
16.1821705202
 21
109.0417456647
 31
0.0
  0
LINE
  5
134
330
1F
100
AcDbEntity
  8
0
  6
Continuous
 62
     7
370
    15
100
AcDbLine
 10
21.6821708214
 20
105.0417457625
 30
0.0
 11
21.6821708214
 21
109.0417457196
 31
0.0
  0
LINE
  5
135
330
1F
100
AcDbEntity
  8
0
  6
Continuous
 62
     7
370
    15
100
AcDbLine
 10
16.1821705202
 20
105.0417456647
 30
0.0
 11
21.6821708214
 21
105.0417457625
 31
0.0
  0
ARC
  5
136
330
1F
100
AcDbEntity
  8
0
  6
Continuous
 62
     7
370
    15
100
AcDbCircle
 10
16.1821705202
 20
104.0417456647
 30
0.0
 40
1.0
100
AcDbArc
 50
90.0
 51
270.0
  0
LINE
  5
137
330
1F
100
AcDbEntity
  8
0
  6
Continuous
 62
     7
370
    15
100
AcDbLine
 10
46.1821705202
 20
103.0417456647
 30
0.0
 11
16.1821705202
 21
103.0417456647
 31
0.0
  0
ARC
  5
138
330
1F
100
AcDbEntity
  8
0
  6
Continuous
 62
     7
370
    15
100
AcDbCircle
 10
46.1821705202
 20
104.0417456647
 30
0.0
 40
1.0
100
AcDbArc
 50
270.0
 51
90.0
  0
LINE
  5
139
330
1F
100
AcDbEntity
  8
0
  6
Continuous
 62
     7
370
    15
100
AcDbLine
 10
40.6821702105
 20
105.0417457625
 30
0.0
 11
46.1821705202
 21
105.0417456647
 31
0.0
  0
LINE
  5
13A
330
1F
100
AcDbEntity
  8
0
  6
Continuous
 62
     7
370
    15
100
AcDbLine
 10
40.6821702105
 20
109.0417457196
 30
0.0
 11
40.6821702105
 21
105.0417457625
 31
0.0
  0
LINE
  5
13B
330
1F
100
AcDbEntity
  8
0
  6
Continuous
 62
     7
370
    15
100
AcDbLine
 10
46.1821705202
 20
109.0417456647
 30
0.0
 11
40.6821702105
 21
109.0417457196
 31
0.0
  0
ARC
  5
13C
330
1F
100
AcDbEntity
  8
0
  6
Continuous
 62
     7
370
    15
100
AcDbCircle
 10
46.1821705202
 20
110.0417456647
 30
0.0
 40
1.0
100
AcDbArc
 50
270.0
 51
90.0
  0
LINE
  5
13D
330
1F
100
AcDbEntity
  8
0
  6
Continuous
 62
     7
370
    15
100
AcDbLine
 10
40.6821702105
 20
111.0417460475
 30
0.0
 11
46.1821705202
 21
111.0417456647
 31
0.0
  0
LINE
  5
13E
330
1F
100
AcDbEntity
  8
0
  6
Continuous
 62
     7
370
    15
100
AcDbLine
 10
40.6821702105
 20
115.0417457718
 30
0.0
 11
40.6821702105
 21
111.0417460475
 31
0.0
  0
LINE
  5
13F
330
1F
100
AcDbEntity
  8
0
  6
Continuous
 62
     7
370
    15
100
AcDbLine
 10
46.1821705202
 20
115.0417456647
 30
0.0
 11
40.6821702105
 21
115.0417457718
 31
0.0
  0
ARC
  5
140
330
1F
100
AcDbEntity
  8
0
  6
Continuous
 62
     7
370
    15
100
AcDbCircle
 10
46.1821705202
 20
116.0417456647
 30
0.0
 40
1.0
100
AcDbArc
 50
270.0
 51
90.0
  0
LINE
  5
141
330
1F
100
AcDbEntity
  8
0
  6
Continuous
 62
     7
370
    15
100
AcDbLine
 10
40.6821702105
 20
117.0417460996
 30
0.0
 11
46.1821705202
 21
117.0417456647
 31
0.0
  0
LINE
  5
142
330
1F
100
AcDbEntity
  8
0
  6
Continuous
 62
     7
370
    15
100
AcDbLine
 10
40.6821702105
 20
121.0417448926
 30
0.0
 11
40.6821702105
 21
117.0417460996
 31
0.0
  0
LINE
  5
143
330
1F
100
AcDbEntity
  8
0
  6
Continuous
 62
     7
370
    15
100
AcDbLine
 10
46.1821705202
 20
121.0417456647
 30
0.0
 11
40.6821702105
 21
121.0417448926
 31
0.0
  0
ARC
  5
144
330
1F
100
AcDbEntity
  8
0
  6
Continuous
 62
     7
370
    15
100
AcDbCircle
 10
46.1821705202
 20
122.0417456647
 30
0.0
 40
1.0
100
AcDbArc
 50
270.0
 51
90.0
  0
LINE
  5
145
330
1F
100
AcDbEntity
  8
0
  6
Continuous
 62
     7
370
    15
100
AcDbLine
 10
38.6821703483
 20
123.0417452204
 30
0.0
 11
46.1821705202
 21
123.0417456647
 31
0.0
  0
LINE
  5
146
330
1F
100
AcDbEntity
  8
0
  6
Continuous
 62
     7
370
    15
100
AcDbLine
 10
38.6821703483
 20
107.0417458575
 30
0.0
 11
38.6821703483
 21
123.0417452204
 31
0.0
  0
LINE
  5
147
330
1F
100
AcDbEntity
  8
0
  6
Continuous
 62
     7
370
    15
100
AcDbLine
 10
23.6821706836
 20
107.0417458575
 30
0.0
 11
38.6821703483
 21
107.0417458575
 31
0.0
  0
LINE
  5
148
330
1F
100
AcDbEntity
  8
0
  6
Continuous
 62
     7
370
    15
100
AcDbLine
 10
23.6821706836
 20
123.0417452204
 30
0.0
 11
23.6821706836
 21
107.0417458575
 31
0.0
  0
DIMENSION
  5
149
330
1F
100
AcDbEntity
  8
0
  6
Continuous
 62
     7
370
     0
100
AcDbDimension
  2
*D16
 10
47.1821705202
 20
87.0417456647
 30
0.0
 11
31.1821705202
 21
87.0417456647
 31
0.0
 70
   160
 71
     1
 42
-1.0
  3
SLDDIMSTYLE1
100
AcDbAlignedDimension
 13
15.1821705202
 23
104.0417456647
 33
0.0
 14
47.1821705202
 24
104.0417456647
 34
0.0
100
AcDbRotatedDimension
  0
DIMENSION
  5
153
330
1F
100
AcDbEntity
  8
0
  6
Continuous
 62
     7
370
     0
100
AcDbDimension
  2
*D17
 10
57.1821705202
 20
103.0417456647
 30
0.0
 11
57.1821705202
 21
113.0417456647
 31
0.0
 70
   160
 71
     1
 42
-1.0
  3
SLDDIMSTYLE1
100
AcDbAlignedDimension
 13
46.1821705202
 23
123.0417456647
 33
0.0
 14
46.1821705202
 24
103.0417456647
 34
0.0
 50
90.0
100
AcDbRotatedDimension
  0
DIMENSION
  5
15F
330
1F
100
AcDbEntity
  8
0
  6
Continuous
 62
     7
370
     0
100
AcDbDimension
  2
*D18
 10
38.6821705202
 20
133.0424093962
 30
0.0
 11
31.1821705202
 21
133.0424093962
 31
0.0
 70
   160
 71
     1
 42
-1.0
  3
SLDDIMSTYLE1
100
AcDbAlignedDimension
 13
23.6821705202
 23
123.0417456647
 33
0.0
 14
38.6821705202
 24
123.0417456647
 34
0.0
100
AcDbRotatedDimension
  0
DIMENSION
  5
16B
330
1F
100
AcDbEntity
  8
0
  6
Continuous
 62
     7
370
     0
100
AcDbDimension
  2
*D19
 10
34.5872754335
 20
107.0417456647
 30
0.0
 11
34.5872754335
 21
116.0345620626
 31
0.0
 70
   160
 71
     1
 42
-1.0
  3
SLDDIMSTYLE1
100
AcDbAlignedDimension
 13
46.1821705202
 23
103.0417456647
 33
0.0
 14
38.6821705202
 24
107.0417456647
 34
0.0
 50
90.0
100
AcDbRotatedDimension
  0
ENDSEC
  0
SECTION
  2
OBJECTS
  0
DICTIONARY
  5
C
330
0
100
AcDbDictionary
281
     1
  3
ACAD_GROUP
350
D
  3
ACAD_LAYOUT
350
1A
  3
ACAD_MLINESTYLE
350
17
  3
ACAD_PLOTSETTINGS
350
19
  3
ACAD_PLOTSTYLENAME
350
E
  0
DICTIONARY
  5
D
102
{ACAD_REACTORS
330
C
102
}
330
C
100
AcDbDictionary
281
     1
  0
DICTIONARY
  5
1A
102
{ACAD_REACTORS
330
C
102
}
330
C
100
AcDbDictionary
281
     1
  3
Layout1
350
1E
  3
Layout2
350
26
  3
Model
350
22
  0
DICTIONARY
  5
17
102
{ACAD_REACTORS
330
C
102
}
330
C
100
AcDbDictionary
281
     1
  3
Standard
350
18
  0
DICTIONARY
  5
19
102
{ACAD_REACTORS
330
C
102
}
330
C
100
AcDbDictionary
281
     1
  0
ACDBDICTIONARYWDFLT
  5
E
102
{ACAD_REACTORS
330
C
102
}
330
C
100
AcDbDictionary
281
     1
  3
Normal
350
F
100
AcDbDictionaryWithDefault
340
F
  0
LAYOUT
  5
1E
102
{ACAD_REACTORS
330
1A
102
}
330
1A
100
AcDbPlotSettings
  1

  2

  4

  6

 40
0.0
 41
0.0
 42
0.0
 43
0.0
 44
0.0
 45
0.0
 46
0.0
 47
0.0
 48
0.0
 49
0.0
140
0.0
141
0.0
142
1.0
143
1.0
 70
   688
 72
     0
 73
     0
 74
     5
  7

 75
    16
147
1.0
148
0.0
149
0.0
100
AcDbLayout
  1
Layout1
 70
     1
 71
     1
 10
0.0
 20
0.0
 11
420.0
 21
297.0
 12
0.0
 22
0.0
 32
0.0
 14
1.0000000000E+20
 24
1.0000000000E+20
 34
1.0000000000E+20
 15
-1.0000000000E+20
 25
-1.0000000000E+20
 35
-1.0000000000E+20
146
0.0
 13
0.0
 23
0.0
 33
0.0
 16
1.0
 26
0.0
 36
0.0
 17
0.0
 27
1.0
 37
0.0
 76
     0
330
1B
  0
LAYOUT
  5
26
102
{ACAD_REACTORS
330
1A
102
}
330
1A
100
AcDbPlotSettings
  1

  2

  4

  6

 40
0.0
 41
0.0
 42
0.0
 43
0.0
 44
0.0
 45
0.0
 46
0.0
 47
0.0
 48
0.0
 49
0.0
140
0.0
141
0.0
142
1.0
143
1.0
 70
   688
 72
     0
 73
     0
 74
     5
  7

 75
    16
147
1.0
148
0.0
149
0.0
100
AcDbLayout
  1
Layout2
 70
     1
 71
     2
 10
0.0
 20
0.0
 11
0.0
 21
0.0
 12
0.0
 22
0.0
 32
0.0
 14
0.0
 24
0.0
 34
0.0
 15
0.0
 25
0.0
 35
0.0
146
0.0
 13
0.0
 23
0.0
 33
0.0
 16
1.0
 26
0.0
 36
0.0
 17
0.0
 27
1.0
 37
0.0
 76
     0
330
23
  0
LAYOUT
  5
22
102
{ACAD_REACTORS
330
1A
102
}
330
1A
100
AcDbPlotSettings
  1

  2

  4

  6

 40
0.0
 41
0.0
 42
0.0
 43
0.0
 44
0.0
 45
0.0
 46
0.0
 47
0.0
 48
0.0
 49
0.0
140
0.0
141
0.0
142
1.0
143
1.0
 70
  1712
 72
     0
 73
     0
 74
     0
  7

 75
     0
147
1.0
148
0.0
149
0.0
100
AcDbLayout
  1
Model
 70
     1
 71
     0
 10
0.0
 20
0.0
 11
0.0
 21
0.0
 12
0.0
 22
0.0
 32
0.0
 14
0.0
 24
0.0
 34
0.0
 15
279.4
 25
215.9
 35
0.0
146
0.0
 13
0.0
 23
0.0
 33
0.0
 16
1.0
 26
0.0
 36
0.0
 17
0.0
 27
1.0
 37
0.0
 76
     0
330
1F
  0
MLINESTYLE
  5
18
102
{ACAD_REACTORS
330
17
102
}
330
17
100
AcDbMlineStyle
  2
Standard
 70
     0
  3

 62
   256
 51
90.0
 52
90.0
 71
     2
 49
0.5
 62
   256
  6
BYLAYER
 49
-0.5
 62
   256
  6
BYLAYER
  0
ACDBPLACEHOLDER
  5
F
102
{ACAD_REACTORS
330
E
102
}
330
E
  0
ENDSEC
  0
EOF
