  0
SECTION
  2
HEADER
  9
$ACADVER
  1
AC1015
  9
$ACADMAINTVER
 70
     6
  9
$DWGCODEPAGE
  3
ANSI_1252
  9
$INSBASE
 10
0.0
 20
0.0
 30
0.0
  9
$EXTMIN
 10
0.0
 20
0.0
 30
0.0
  9
$EXTMAX
 10
279.4
 20
215.9
 30
0.0
  9
$LIMMIN
 10
0.0
 20
0.0
  9
$LIMMAX
 10
0.0
 20
0.0
  9
$ORTHOMODE
 70
     0
  9
$REGENMODE
 70
     1
  9
$FILLMODE
 70
     1
  9
$QTEXTMODE
 70
     0
  9
$MIRRTEXT
 70
     1
  9
$LTSCALE
 40
1.0
  9
$ATTMODE
 70
     1
  9
$TEXTSIZE
 40
3.5
  9
$TRACEWID
 40
1.0
  9
$TEXTSTYLE
  7
Standard
  9
$CLAYER
  8
0
  9
$CELTYPE
  6
ByLayer
  9
$CECOLOR
 62
   256
  9
$CELTSCALE
 40
1.0
  9
$DISPSILH
 70
     0
  9
$DIMSCALE
 40
1.0
  9
$DIMASZ
 40
3.302
  9
$DIMEXO
 40
1.0
  9
$DIMDLI
 40
3.75
  9
$DIMRND
 40
0.0
  9
$DIMDLE
 40
0.0
  9
$DIMEXE
 40
1.0
  9
$DIMTP
 40
0.0
  9
$DIMTM
 40
0.0
  9
$DIMTXT
 40
8.8194444444
  9
$DIMCEN
 40
2.5
  9
$DIMTSZ
 40
0.0
  9
$DIMTOL
 70
     0
  9
$DIMLIM
 70
     0
  9
$DIMTIH
 70
     1
  9
$DIMTOH
 70
     1
  9
$DIMSE1
 70
     0
  9
$DIMSE2
 70
     0
  9
$DIMTAD
 70
     1
  9
$DIMZIN
 70
     0
  9
$DIMBLK
  1

  9
$DIMASO
 70
     1
  9
$DIMSHO
 70
     1
  9
$DIMPOST
  1

  9
$DIMAPOST
  1

  9
$DIMALT
 70
     0
  9
$DIMALTD
 70
     3
  9
$DIMALTF
 40
0.0393700787
  9
$DIMLFAC
 40
2.0
  9
$DIMTOFL
 70
     1
  9
$DIMTVP
 40
0.0
  9
$DIMTIX
 70
     0
  9
$DIMSOXD
 70
     0
  9
$DIMSAH
 70
     0
  9
$DIMBLK1
  1

  9
$DIMBLK2
  1

  9
$DIMSTYLE
  2
ISO-25
  9
$DIMCLRD
 70
     0
  9
$DIMCLRE
 70
     0
  9
$DIMCLRT
 70
     0
  9
$DIMTFAC
 40
1.0
  9
$DIMGAP
 40
1.524
  9
$DIMJUST
 70
     0
  9
$DIMSD1
 70
     0
  9
$DIMSD2
 70
     0
  9
$DIMTOLJ
 70
     0
  9
$DIMTZIN
 70
     0
  9
$DIMALTZ
 70
     0
  9
$DIMALTTZ
 70
     0
  9
$DIMUPT
 70
     0
  9
$DIMDEC
 70
     2
  9
$DIMTDEC
 70
     2
  9
$DIMALTU
 70
     2
  9
$DIMALTTD
 70
     3
  9
$DIMTXSTY
  7
Standard
  9
$DIMAUNIT
 70
     0
  9
$DIMADEC
 70
     0
  9
$DIMALTRND
 40
0.0
  9
$DIMAZIN
 70
     0
  9
$DIMDSEP
 70
    44
  9
$DIMATFIT
 70
     3
  9
$DIMFRAC
 70
     0
  9
$DIMLDRBLK
  1

  9
$DIMLUNIT
 70
     2
  9
$DIMLWD
 70
    -2
  9
$DIMLWE
 70
    -2
  9
$DIMTMOVE
 70
     0
  9
$LUNITS
 70
     2
  9
$LUPREC
 70
     2
  9
$SKETCHINC
 40
1.0
  9
$FILLETRAD
 40
10.0
  9
$AUNITS
 70
     0
  9
$AUPREC
 70
     0
  9
$MENU
  1
.
  9
$ELEVATION
 40
0.0
  9
$PELEVATION
 40
0.0
  9
$THICKNESS
 40
0.0
  9
$LIMCHECK
 70
     0
  9
$CHAMFERA
 40
10.0
  9
$CHAMFERB
 40
10.0
  9
$CHAMFERC
 40
20.0
  9
$CHAMFERD
 40
0.0
  9
$SKPOLY
 70
     0
  9
$TDCREATE
 40
2454505.302912732
  9
$TDUCREATE
 40
2454505.261246065
  9
$TDUPDATE
 40
2454505.302912743
  9
$TDUUPDATE
 40
2454505.261246076
  9
$TDINDWG
 40
0.0000000116
  9
$TDUSRTIMER
 40
0.0000000116
  9
$USRTIMER
 70
     1
  9
$ANGBASE
 50
0.0
  9
$ANGDIR
 70
     0
  9
$PDMODE
 70
     0
  9
$PDSIZE
 40
-1.0
  9
$PLINEWID
 40
0.0
  9
$SPLFRAME
 70
     0
  9
$SPLINETYPE
 70
     6
  9
$SPLINESEGS
 70
     8
  9
$HANDSEED
  5
389
  9
$SURFTAB1
 70
     6
  9
$SURFTAB2
 70
     6
  9
$SURFTYPE
 70
     6
  9
$SURFU
 70
     6
  9
$SURFV
 70
     6
  9
$UCSBASE
  2

  9
$UCSNAME
  2

  9
$UCSORG
 10
0.0
 20
0.0
 30
0.0
  9
$UCSXDIR
 10
1.0
 20
0.0
 30
0.0
  9
$UCSYDIR
 10
0.0
 20
1.0
 30
0.0
  9
$UCSORTHOREF
  2

  9
$UCSORTHOVIEW
 70
     0
  9
$UCSORGTOP
 10
0.0
 20
0.0
 30
0.0
  9
$UCSORGBOTTOM
 10
0.0
 20
0.0
 30
0.0
  9
$UCSORGLEFT
 10
0.0
 20
0.0
 30
0.0
  9
$UCSORGRIGHT
 10
0.0
 20
0.0
 30
0.0
  9
$UCSORGFRONT
 10
0.0
 20
0.0
 30
0.0
  9
$UCSORGBACK
 10
0.0
 20
0.0
 30
0.0
  9
$PUCSBASE
  2

  9
$PUCSNAME
  2

  9
$PUCSORG
 10
0.0
 20
0.0
 30
0.0
  9
$PUCSXDIR
 10
1.0
 20
0.0
 30
0.0
  9
$PUCSYDIR
 10
0.0
 20
1.0
 30
0.0
  9
$PUCSORTHOREF
  2

  9
$PUCSORTHOVIEW
 70
     0
  9
$PUCSORGTOP
 10
0.0
 20
0.0
 30
0.0
  9
$PUCSORGBOTTOM
 10
0.0
 20
0.0
 30
0.0
  9
$PUCSORGLEFT
 10
0.0
 20
0.0
 30
0.0
  9
$PUCSORGRIGHT
 10
0.0
 20
0.0
 30
0.0
  9
$PUCSORGFRONT
 10
0.0
 20
0.0
 30
0.0
  9
$PUCSORGBACK
 10
0.0
 20
0.0
 30
0.0
  9
$USERI1
 70
     0
  9
$USERI2
 70
     0
  9
$USERI3
 70
     0
  9
$USERI4
 70
     0
  9
$USERI5
 70
     0
  9
$USERR1
 40
0.0
  9
$USERR2
 40
0.0
  9
$USERR3
 40
0.0
  9
$USERR4
 40
0.0
  9
$USERR5
 40
0.0
  9
$WORLDVIEW
 70
     1
  9
$SHADEDGE
 70
     3
  9
$SHADEDIF
 70
    70
  9
$TILEMODE
 70
     1
  9
$MAXACTVP
 70
    64
  9
$PINSBASE
 10
0.0
 20
0.0
 30
0.0
  9
$PLIMCHECK
 70
     0
  9
$PEXTMIN
 10
1.0000000000E+20
 20
1.0000000000E+20
 30
1.0000000000E+20
  9
$PEXTMAX
 10
-1.0000000000E+20
 20
-1.0000000000E+20
 30
-1.0000000000E+20
  9
$PLIMMIN
 10
0.0
 20
0.0
  9
$PLIMMAX
 10
420.0
 20
297.0
  9
$UNITMODE
 70
     0
  9
$VISRETAIN
 70
     1
  9
$PLINEGEN
 70
     0
  9
$PSLTSCALE
 70
     1
  9
$TREEDEPTH
 70
  3020
  9
$CMLSTYLE
  2
Standard
  9
$CMLJUST
 70
     0
  9
$CMLSCALE
 40
20.0
  9
$PROXYGRAPHICS
 70
     1
  9
$MEASUREMENT
 70
     1
  9
$CELWEIGHT
370
    -1
  9
$ENDCAPS
280
     0
  9
$JOINSTYLE
280
     0
  9
$LWDISPLAY
290
     1
  9
$INSUNITS
 70
     4
  9
$HYPERLINKBASE
  1

  9
$STYLESHEET
  1

  9
$XEDIT
290
     1
  9
$CEPSNTYPE
380
     0
  9
$PSTYLEMODE
290
     1
  9
$FINGERPRINTGUID
  2
{2269F18F-B700-4A9B-B0CB-FB901F83C966}
  9
$VERSIONGUID
  2
{FAEB1C32-E019-11D5-929B-00C0DF256EC4}
  9
$EXTNAMES
290
     1
  9
$PSVPSCALE
 40
0.0
  9
$OLESTARTUP
290
     0
  0
ENDSEC
  0
SECTION
  2
CLASSES
  0
CLASS
  1
ACDBDICTIONARYWDFLT
  2
AcDbDictionaryWithDefault
  3
ObjectDBX Classes
 90
        0
280
     0
281
     0
  0
CLASS
  1
ACDBPLACEHOLDER
  2
AcDbPlaceHolder
  3
ObjectDBX Classes
 90
        0
280
     0
281
     0
  0
CLASS
  1
LAYOUT
  2
AcDbLayout
  3
ObjectDBX Classes
 90
        0
280
     0
281
     0
  0
ENDSEC
  0
SECTION
  2
TABLES
  0
TABLE
  2
VPORT
  5
8
330
0
100
AcDbSymbolTable
 70
     1
  0
VPORT
  5
29
330
8
100
AcDbSymbolTableRecord
100
AcDbViewportTableRecord
  2
*Active
 70
     0
 10
0.0
 20
0.0
 11
1.0
 21
1.0
 12
139.7
 22
107.95
 13
0.0
 23
0.0
 14
10.0
 24
10.0
 15
10.0
 25
10.0
 16
0.0
 26
0.0
 36
1.0
 17
0.0
 27
0.0
 37
0.0
 40
215.9
 41
1.2941176471
 42
50.0
 43
0.0
 44
0.0
 50
0.0
 51
0.0
 71
     0
 72
  2000
 73
     1
 74
     3
 75
     0
 76
     0
 77
     0
 78
     0
281
     0
 65
     1
110
0.0
120
0.0
130
0.0
111
1.0
121
0.0
131
0.0
112
0.0
122
1.0
132
0.0
 79
     0
146
0.0
  0
ENDTAB
  0
TABLE
  2
LTYPE
  5
5
330
0
100
AcDbSymbolTable
 70
     6
  0
LTYPE
  5
14
330
5
100
AcDbSymbolTableRecord
100
AcDbLinetypeTableRecord
  2
ByBlock
 70
     0
  3

 72
    65
 73
     0
 40
0.0
  0
LTYPE
  5
15
330
5
100
AcDbSymbolTableRecord
100
AcDbLinetypeTableRecord
  2
ByLayer
 70
     0
  3

 72
    65
 73
     0
 40
0.0
  0
LTYPE
  5
16
330
5
100
AcDbSymbolTableRecord
100
AcDbLinetypeTableRecord
  2
Continuous
 70
     0
  3
Solid line
 72
    65
 73
     0
 40
0.0
  0
LTYPE
  5
2A
330
5
100
AcDbSymbolTableRecord
100
AcDbLinetypeTableRecord
  2
HIDDEN
 70
     0
  3
Hidden __ __ __ __ __ __ __ __ __ __ __ __ __ __
 72
    65
 73
     2
 40
1.905
 49
1.27
 74
     0
 49
-0.635
 74
     0
  0
LTYPE
  5
2B
330
5
100
AcDbSymbolTableRecord
100
AcDbLinetypeTableRecord
  2
PHANTOM
 70
     0
  3
Phantom ______  __  __  ______  __  __  ______
 72
    65
 73
     6
 40
12.7
 49
6.35
 74
     0
 49
-1.27
 74
     0
 49
1.27
 74
     0
 49
-1.27
 74
     0
 49
1.27
 74
     0
 49
-1.27
 74
     0
  0
LTYPE
  5
2C
330
5
100
AcDbSymbolTableRecord
100
AcDbLinetypeTableRecord
  2
CENTER
 70
     0
  3
Center ____ _ ____ _ ____ _ ____ _ ____ _ ____
 72
    65
 73
     4
 40
10.16
 49
6.35
 74
     0
 49
-1.27
 74
     0
 49
1.27
 74
     0
 49
-1.27
 74
     0
  0
LTYPE
  5
2D
330
5
100
AcDbSymbolTableRecord
100
AcDbLinetypeTableRecord
  2
CENTERX2
 70
     0
  3
Center (2x) ________  __  ________  __  _____
 72
    65
 73
     4
 40
20.32
 49
12.7
 74
     0
 49
-2.54
 74
     0
 49
2.54
 74
     0
 49
-2.54
 74
     0
  0
LTYPE
  5
2E
330
5
100
AcDbSymbolTableRecord
100
AcDbLinetypeTableRecord
  2
DOT2
 70
     0
  3
Dot (.5x) ........................................
 72
    65
 73
     2
 40
0.635
 49
0.0
 74
     0
 49
-0.635
 74
     0
  0
ENDTAB
  0
TABLE
  2
LAYER
  5
2
330
0
100
AcDbSymbolTable
 70
     1
  0
LAYER
  5
10
330
2
100
AcDbSymbolTableRecord
100
AcDbLayerTableRecord
  2
0
 70
     0
 62
     7
  6
Continuous
370
    -3
390
F
  0
ENDTAB
  0
TABLE
  2
STYLE
  5
3
330
0
100
AcDbSymbolTable
 70
     2
  0
STYLE
  5
11
330
3
100
AcDbSymbolTableRecord
100
AcDbTextStyleTableRecord
  2
Standard
 70
     0
 40
0.0
 41
1.0
 50
0.0
 71
     0
 42
2.5
  3
txt
  4

  0
STYLE
  5
368
330
3
100
AcDbSymbolTableRecord
100
AcDbTextStyleTableRecord
  2
SLDTEXTSTYLE0
 70
     0
 40
0.0
 41
0.75
 50
0.0
 71
     0
 42
0.2
  3
TXT
  4

  0
ENDTAB
  0
TABLE
  2
VIEW
  5
6
330
0
100
AcDbSymbolTable
 70
     0
  0
ENDTAB
  0
TABLE
  2
UCS
  5
7
330
0
100
AcDbSymbolTable
 70
     0
  0
ENDTAB
  0
TABLE
  2
APPID
  5
9
330
0
100
AcDbSymbolTable
 70
     1
  0
APPID
  5
12
330
9
100
AcDbSymbolTableRecord
100
AcDbRegAppTableRecord
  2
ACAD
 70
     0
  0
ENDTAB
  0
TABLE
  2
DIMSTYLE
  5
A
330
0
100
AcDbSymbolTable
 70
     2
100
AcDbDimStyleTable
  0
DIMSTYLE
105
27
330
A
100
AcDbSymbolTableRecord
100
AcDbDimStyleTableRecord
  2
ISO-25
 70
     0
 41
2.5
 42
0.625
 43
3.75
 44
1.25
 73
     0
 74
     0
 77
     1
 78
     8
140
2.5
141
2.5
143
0.0393700787
147
0.625
171
     3
172
     1
271
     2
272
     2
274
     3
278
    44
283
     0
284
     8
340
11
  0
DIMSTYLE
105
369
102
{ACAD_REACTORS
330
367
330
373
330
37D
102
}
330
A
100
AcDbSymbolTableRecord
100
AcDbDimStyleTableRecord
  2
SLDDIMSTYLE0
 70
     0
 41
3.302
 44
0.0
 73
     0
 74
     0
 77
     1
 78
    12
140
6.6145833333
147
1.6536458333
173
     1
271
     2
272
     2
284
    12
340
368
  0
ENDTAB
  0
TABLE
  2
BLOCK_RECORD
  5
1
330
0
100
AcDbSymbolTable
 70
     4
  0
BLOCK_RECORD
  5
1F
330
1
100
AcDbSymbolTableRecord
100
AcDbBlockTableRecord
  2
*Model_Space
340
22
  0
BLOCK_RECORD
  5
1B
330
1
100
AcDbSymbolTableRecord
100
AcDbBlockTableRecord
  2
*Paper_Space
340
1E
  0
BLOCK_RECORD
  5
23
330
1
100
AcDbSymbolTableRecord
100
AcDbBlockTableRecord
  2
*Paper_Space0
340
26
  0
BLOCK_RECORD
  5
36A
330
1
100
AcDbSymbolTableRecord
100
AcDbBlockTableRecord
  2
*D1
340
0
  0
BLOCK_RECORD
  5
374
330
1
100
AcDbSymbolTableRecord
100
AcDbBlockTableRecord
  2
*D2
340
0
  0
BLOCK_RECORD
  5
37E
330
1
100
AcDbSymbolTableRecord
100
AcDbBlockTableRecord
  2
*D3
340
0
  0
ENDTAB
  0
ENDSEC
  0
SECTION
  2
BLOCKS
  0
BLOCK
  5
20
330
1F
100
AcDbEntity
  8
0
100
AcDbBlockBegin
  2
*Model_Space
 70
     0
 71
     0
 10
0.0
 20
0.0
 30
0.0
  3
*Model_Space
  1

  0
ENDBLK
  5
21
330
1F
100
AcDbEntity
  8
0
100
AcDbBlockEnd
  0
BLOCK
  5
1C
330
1B
100
AcDbEntity
 67
     1
  8
0
100
AcDbBlockBegin
  2
*Paper_Space
 70
     0
 71
     0
 10
0.0
 20
0.0
 30
0.0
  3
*Paper_Space
  1

  0
ENDBLK
  5
1D
330
1B
100
AcDbEntity
 67
     1
  8
0
100
AcDbBlockEnd
  0
BLOCK
  5
24
330
23
100
AcDbEntity
  8
0
100
AcDbBlockBegin
  2
*Paper_Space0
 70
     0
 71
     0
 10
0.0
 20
0.0
 30
0.0
  3
*Paper_Space0
  1

  0
ENDBLK
  5
25
330
23
100
AcDbEntity
  8
0
100
AcDbBlockEnd
  0
BLOCK
  5
36B
330
36A
100
AcDbEntity
  8
0
100
AcDbBlockBegin
  2
*D1
 70
     1
 71
     0
 10
0.0
 20
0.0
 30
0.0
  3
*D1
  1

  0
SOLID
  5
36D
330
36A
100
AcDbEntity
  8
0
  6
Continuous
 62
     7
370
     0
100
AcDbTrace
 10
73.6535520231
 20
33.4058526012
 30
0.0
 11
76.9555520231
 21
32.8978526012
 31
0.0
 12
76.9555520231
 22
33.9138526012
 32
0.0
 13
76.9555520231
 23
33.9138526012
 33
0.0
  0
SOLID
  5
36E
330
36A
100
AcDbEntity
  8
0
  6
Continuous
 62
     7
370
     0
100
AcDbTrace
 10
193.6535520231
 20
33.4058526012
 30
0.0
 11
190.3515520231
 21
33.9138526012
 31
0.0
 12
190.3515520231
 22
32.8978526012
 32
0.0
 13
190.3515520231
 23
32.8978526012
 33
0.0
  0
LINE
  5
36F
330
36A
100
AcDbEntity
  8
0
  6
Continuous
 62
     7
370
     0
100
AcDbLine
 10
73.6535520231
 20
54.9058526012
 30
0.0
 11
73.6535520231
 21
32.4058526012
 31
0.0
  0
LINE
  5
370
330
36A
100
AcDbEntity
  8
0
  6
Continuous
 62
     7
370
     0
100
AcDbLine
 10
193.6535520231
 20
54.9058526012
 30
0.0
 11
193.6535520231
 21
32.4058526012
 31
0.0
  0
LINE
  5
371
330
36A
100
AcDbEntity
  8
0
  6
Continuous
 62
     7
370
     0
100
AcDbLine
 10
73.6535520231
 20
33.4058526012
 30
0.0
 11
193.6535520231
 21
33.4058526012
 31
0.0
  0
MTEXT
  5
372
330
36A
100
AcDbEntity
  8
0
  6
Continuous
 62
     7
370
     0
100
AcDbMText
 10
126.9594976445
 20
41.8549493973
 30
0.0
 40
6.6145833333
 41
0.0
 71
     1
 72
     1
  1
120
  7
SLDTEXTSTYLE0
 73
     1
 44
1.0
  0
ENDBLK
  5
36C
330
36A
100
AcDbEntity
  8
0
100
AcDbBlockEnd
  0
BLOCK
  5
375
330
374
100
AcDbEntity
  8
0
100
AcDbBlockBegin
  2
*D2
 70
     1
 71
     0
 10
0.0
 20
0.0
 30
0.0
  3
*D2
  1

  0
SOLID
  5
377
330
374
100
AcDbEntity
  8
0
  6
Continuous
 62
     7
370
     0
100
AcDbTrace
 10
239.6535520231
 20
55.4058526012
 30
0.0
 11
240.1615520231
 21
58.7078526012
 31
0.0
 12
239.1455520231
 22
58.7078526012
 32
0.0
 13
239.1455520231
 23
58.7078526012
 33
0.0
  0
SOLID
  5
378
330
374
100
AcDbEntity
  8
0
  6
Continuous
 62
     7
370
     0
100
AcDbTrace
 10
239.6535520231
 20
176.4058526012
 30
0.0
 11
239.1455520231
 21
173.1038526012
 31
0.0
 12
240.1615520231
 22
173.1038526012
 32
0.0
 13
240.1615520231
 23
173.1038526012
 33
0.0
  0
LINE
  5
379
330
374
100
AcDbEntity
  8
0
  6
Continuous
 62
     7
370
     0
100
AcDbLine
 10
194.1535520231
 20
55.4058526012
 30
0.0
 11
240.6535520231
 21
55.4058526012
 31
0.0
  0
LINE
  5
37A
330
374
100
AcDbEntity
  8
0
  6
Continuous
 62
     7
370
     0
100
AcDbLine
 10
194.1535520231
 20
176.4058526012
 30
0.0
 11
240.6535520231
 21
176.4058526012
 31
0.0
  0
LINE
  5
37B
330
374
100
AcDbEntity
  8
0
  6
Continuous
 62
     7
370
     0
100
AcDbLine
 10
239.6535520231
 20
55.4058526012
 30
0.0
 11
239.6535520231
 21
176.4058526012
 31
0.0
  0
MTEXT
  5
37C
330
374
100
AcDbEntity
  8
0
  6
Continuous
 62
     7
370
     0
100
AcDbMText
 10
231.204455227
 20
109.5300323266
 30
0.0
 40
6.6145833333
 41
0.0
 71
     1
 72
     1
  1
121
  7
SLDTEXTSTYLE0
 11
6.944613070367089E-15
 21
1.0
 31
0.0
 73
     1
 44
1.0
  0
ENDBLK
  5
376
330
374
100
AcDbEntity
  8
0
100
AcDbBlockEnd
  0
BLOCK
  5
37F
330
37E
100
AcDbEntity
  8
0
100
AcDbBlockBegin
  2
*D3
 70
     1
 71
     0
 10
0.0
 20
0.0
 30
0.0
  3
*D3
  1

  0
SOLID
  5
381
330
37E
100
AcDbEntity
  8
0
  6
Continuous
 62
     7
370
     0
100
AcDbTrace
 10
215.6535520231
 20
156.4058511799
 30
0.0
 11
215.1455520231
 21
153.1038511799
 31
0.0
 12
216.1615520231
 22
153.1038511799
 32
0.0
 13
216.1615520231
 23
153.1038511799
 33
0.0
  0
SOLID
  5
382
330
37E
100
AcDbEntity
  8
0
  6
Continuous
 62
     7
370
     0
100
AcDbTrace
 10
215.6535520231
 20
176.4058526012
 30
0.0
 11
216.1615520231
 21
179.7078526012
 31
0.0
 12
215.1455520231
 22
179.7078526012
 32
0.0
 13
215.1455520231
 23
179.7078526012
 33
0.0
  0
LINE
  5
383
330
37E
100
AcDbEntity
  8
0
  6
Continuous
 62
     7
370
     0
100
AcDbLine
 10
188.2019127764
 20
156.4058511799
 30
0.0
 11
216.6535520231
 21
156.4058511799
 31
0.0
  0
LINE
  5
384
330
37E
100
AcDbEntity
  8
0
  6
Continuous
 62
     7
370
     0
100
AcDbLine
 10
194.1535520231
 20
176.4058526012
 30
0.0
 11
216.6535520231
 21
176.4058526012
 31
0.0
  0
LINE
  5
385
330
37E
100
AcDbEntity
  8
0
  6
Continuous
 62
     7
370
     0
100
AcDbLine
 10
215.6535520231
 20
156.4058511799
 30
0.0
 11
215.6535520231
 21
135.8452985694
 31
0.0
  0
LINE
  5
386
330
37E
100
AcDbEntity
  8
0
  6
Continuous
 62
     7
370
     0
100
AcDbLine
 10
215.6535520231
 20
156.4058511799
 30
0.0
 11
215.6535520231
 21
176.4058526012
 31
0.0
  0
LINE
  5
387
330
37E
100
AcDbEntity
  8
0
  6
Continuous
 62
     7
370
     0
100
AcDbLine
 10
215.6535520231
 20
176.4058526012
 30
0.0
 11
215.6535520231
 21
182.7558526012
 31
0.0
  0
MTEXT
  5
388
330
37E
100
AcDbEntity
  8
0
  6
Continuous
 62
     7
370
     0
100
AcDbMText
 10
207.204455227
 20
137.4327985694
 30
0.0
 40
6.6145833333
 41
0.0
 71
     1
 72
     1
  1
20
  7
SLDTEXTSTYLE0
 11
6.944613070367089E-15
 21
1.0
 31
0.0
 73
     1
 44
1.0
  0
ENDBLK
  5
380
330
37E
100
AcDbEntity
  8
0
100
AcDbBlockEnd
  0
ENDSEC
  0
SECTION
  2
ENTITIES
  0
LINE
  5
2F
330
1F
100
AcDbEntity
  8
0
  6
Continuous
 62
     7
370
    15
100
AcDbLine
 10
168.653555786
 20
153.6149546492
 30
0.0
 11
168.653555786
 21
110.4058516492
 31
0.0
  0
LINE
  5
30
330
1F
100
AcDbEntity
  8
0
  6
Continuous
 62
     7
370
    15
100
AcDbLine
 10
168.653555786
 20
153.6149546492
 30
0.0
 11
167.186568786
 21
156.1558516492
 31
0.0
  0
ARC
  5
31
330
1F
100
AcDbEntity
  8
0
  6
Continuous
 62
     7
370
    15
100
AcDbCircle
 10
166.753555786
 20
155.9058516492
 30
0.0
 40
0.500000258168909
100
AcDbArc
 50
29.9999829197
 51
150.0000170803
  0
LINE
  5
32
330
1F
100
AcDbEntity
  8
0
  6
Continuous
 62
     7
370
    15
100
AcDbLine
 10
166.320542786
 20
156.1558516492
 30
0.0
 11
164.853555786
 21
153.6149546492
 31
0.0
  0
LINE
  5
33
330
1F
100
AcDbEntity
  8
0
  6
Continuous
 62
     7
370
    15
100
AcDbLine
 10
164.853555786
 20
153.6149546492
 30
0.0
 11
164.853555786
 21
110.4058516492
 31
0.0
  0
ARC
  5
34
330
1F
100
AcDbEntity
  8
0
  6
Continuous
 62
     7
370
    15
100
AcDbCircle
 10
165.353555786
 20
110.4058516492
 30
0.0
 40
0.5
100
AcDbArc
 50
180.0
 51
270.0
  0
LINE
  5
35
330
1F
100
AcDbEntity
  8
0
  6
Continuous
 62
     7
370
    15
100
AcDbLine
 10
168.153555786
 20
109.9058516492
 30
0.0
 11
165.353555786
 21
109.9058516492
 31
0.0
  0
ARC
  5
36
330
1F
100
AcDbEntity
  8
0
  6
Continuous
 62
     7
370
    15
100
AcDbCircle
 10
168.153555786
 20
110.4058516492
 30
0.0
 40
0.5
100
AcDbArc
 50
270.0
 51
0.0
  0
ARC
  5
37
330
1F
100
AcDbEntity
  8
0
  6
Continuous
 62
     7
370
    15
100
AcDbCircle
 10
165.353555786
 20
107.9058516492
 30
0.0
 40
0.5
100
AcDbArc
 50
90.0
 51
180.0
  0
LINE
  5
38
330
1F
100
AcDbEntity
  8
0
  6
Continuous
 62
     7
370
    15
100
AcDbLine
 10
164.853555786
 20
107.9058516492
 30
0.0
 11
164.853555786
 21
62.4058516492
 31
0.0
  0
ARC
  5
39
330
1F
100
AcDbEntity
  8
0
  6
Continuous
 62
     7
370
    15
100
AcDbCircle
 10
165.353555786
 20
62.4058516492
 30
0.0
 40
0.5
100
AcDbArc
 50
180.0
 51
270.0
  0
LINE
  5
3A
330
1F
100
AcDbEntity
  8
0
  6
Continuous
 62
     7
370
    15
100
AcDbLine
 10
168.153555786
 20
61.9058516492
 30
0.0
 11
165.353555786
 21
61.9058516492
 31
0.0
  0
ARC
  5
3B
330
1F
100
AcDbEntity
  8
0
  6
Continuous
 62
     7
370
    15
100
AcDbCircle
 10
168.153555786
 20
62.4058516492
 30
0.0
 40
0.5
100
AcDbArc
 50
270.0
 51
360.0
  0
LINE
  5
3C
330
1F
100
AcDbEntity
  8
0
  6
Continuous
 62
     7
370
    15
100
AcDbLine
 10
168.653555786
 20
107.9058516492
 30
0.0
 11
168.653555786
 21
62.4058516492
 31
0.0
  0
ARC
  5
3D
330
1F
100
AcDbEntity
  8
0
  6
Continuous
 62
     7
370
    15
100
AcDbCircle
 10
168.153555786
 20
107.9058516492
 30
0.0
 40
0.5
100
AcDbArc
 50
0.0
 51
90.0
  0
LINE
  5
3E
330
1F
100
AcDbEntity
  8
0
  6
Continuous
 62
     7
370
    15
100
AcDbLine
 10
168.153555786
 20
108.4058516492
 30
0.0
 11
165.353555786
 21
108.4058516492
 31
0.0
  0
LINE
  5
3F
330
1F
100
AcDbEntity
  8
0
  6
Continuous
 62
     7
370
    15
100
AcDbLine
 10
165.021504786
 20
60.4058516492
 30
0.0
 11
163.753555786
 21
60.4058516492
 31
0.0
  0
ARC
  5
40
330
1F
100
AcDbEntity
  8
0
  6
Continuous
 62
     7
370
    15
100
AcDbCircle
 10
163.753555786
 20
60.9058516492
 30
0.0
 40
0.5
100
AcDbArc
 50
180.0
 51
270.0
  0
LINE
  5
41
330
1F
100
AcDbEntity
  8
0
  6
Continuous
 62
     7
370
    15
100
AcDbLine
 10
163.253555786
 20
71.7058516492
 30
0.0
 11
163.253555786
 21
60.9058516492
 31
0.0
  0
LINE
  5
42
330
1F
100
AcDbEntity
  8
0
  6
Continuous
 62
     7
370
    15
100
AcDbLine
 10
163.253555786
 20
71.7058516492
 30
0.0
 11
163.053555786
 21
71.9058516492
 31
0.0
  0
LINE
  5
43
330
1F
100
AcDbEntity
  8
0
  6
Continuous
 62
     7
370
    15
100
AcDbLine
 10
163.053555786
 20
155.1058516492
 30
0.0
 11
163.053555786
 21
71.9058516492
 31
0.0
  0
LINE
  5
44
330
1F
100
AcDbEntity
  8
0
  6
Continuous
 62
     7
370
    15
100
AcDbLine
 10
163.853555786
 20
155.9058516492
 30
0.0
 11
163.053555786
 21
155.1058516492
 31
0.0
  0
LINE
  5
45
330
1F
100
AcDbEntity
  8
0
  6
Continuous
 62
     7
370
    15
100
AcDbLine
 10
163.853555786
 20
160.4058516492
 30
0.0
 11
163.853555786
 21
155.9058516492
 31
0.0
  0
LINE
  5
46
330
1F
100
AcDbEntity
  8
0
  6
Continuous
 62
     7
370
    15
100
AcDbLine
 10
169.653555786
 20
160.4058516492
 30
0.0
 11
163.853555786
 21
160.4058516492
 31
0.0
  0
LINE
  5
47
330
1F
100
AcDbEntity
  8
0
  6
Continuous
 62
     7
370
    15
100
AcDbLine
 10
169.653555786
 20
160.4058516492
 30
0.0
 11
169.653555786
 21
155.9058516492
 31
0.0
  0
LINE
  5
48
330
1F
100
AcDbEntity
  8
0
  6
Continuous
 62
     7
370
    15
100
AcDbLine
 10
170.453555786
 20
155.1058516492
 30
0.0
 11
169.653555786
 21
155.9058516492
 31
0.0
  0
LINE
  5
49
330
1F
100
AcDbEntity
  8
0
  6
Continuous
 62
     7
370
    15
100
AcDbLine
 10
170.453555786
 20
155.1058516492
 30
0.0
 11
170.453555786
 21
71.9058516492
 31
0.0
  0
LINE
  5
4A
330
1F
100
AcDbEntity
  8
0
  6
Continuous
 62
     7
370
    15
100
AcDbLine
 10
170.453555786
 20
71.9058516492
 30
0.0
 11
170.253555786
 21
71.7058516492
 31
0.0
  0
LINE
  5
4B
330
1F
100
AcDbEntity
  8
0
  6
Continuous
 62
     7
370
    15
100
AcDbLine
 10
170.253555786
 20
71.7058516492
 30
0.0
 11
170.253555786
 21
60.9058516492
 31
0.0
  0
ARC
  5
4C
330
1F
100
AcDbEntity
  8
0
  6
Continuous
 62
     7
370
    15
100
AcDbCircle
 10
169.753555786
 20
60.9058516492
 30
0.0
 40
0.5
100
AcDbArc
 50
270.0
 51
360.0
  0
LINE
  5
4D
330
1F
100
AcDbEntity
  8
0
  6
Continuous
 62
     7
370
    15
100
AcDbLine
 10
169.753555786
 20
60.4058516492
 30
0.0
 11
168.4856065936
 21
60.4058516492
 31
0.0
  0
ARC
  5
4E
330
1F
100
AcDbEntity
  8
0
  6
Continuous
 62
     7
370
    15
100
AcDbCircle
 10
166.753555786
 20
61.4058516492
 30
0.0
 40
2.00000016665024
100
AcDbArc
 50
209.9999972436
 51
330.0
  0
LINE
  5
4F
330
1F
100
AcDbEntity
  8
0
  6
Continuous
 62
     7
370
    15
100
AcDbLine
 10
108.2535604208
 20
71.7058516492
 30
0.0
 11
108.2535604208
 21
60.9058516492
 31
0.0
  0
LINE
  5
50
330
1F
100
AcDbEntity
  8
0
  6
Continuous
 62
     7
370
    15
100
AcDbLine
 10
108.2535604208
 20
71.7058516492
 30
0.0
 11
108.0535604208
 21
71.9058516492
 31
0.0
  0
LINE
  5
51
330
1F
100
AcDbEntity
  8
0
  6
Continuous
 62
     7
370
    15
100
AcDbLine
 10
113.6535604208
 20
153.6149546492
 30
0.0
 11
113.6535604208
 21
110.4058516492
 31
0.0
  0
LINE
  5
52
330
1F
100
AcDbEntity
  8
0
  6
Continuous
 62
     7
370
    15
100
AcDbLine
 10
110.0215094208
 20
60.4058516492
 30
0.0
 11
108.7535604208
 21
60.4058516492
 31
0.0
  0
ARC
  5
53
330
1F
100
AcDbEntity
  8
0
  6
Continuous
 62
     7
370
    15
100
AcDbCircle
 10
110.3535604208
 20
107.9058516492
 30
0.0
 40
0.5
100
AcDbArc
 50
90.0
 51
180.0
  0
ARC
  5
54
330
1F
100
AcDbEntity
  8
0
  6
Continuous
 62
     7
370
    15
100
AcDbCircle
 10
108.7535604208
 20
60.9058516492
 30
0.0
 40
0.5
100
AcDbArc
 50
180.0
 51
270.0
  0
LINE
  5
55
330
1F
100
AcDbEntity
  8
0
  6
Continuous
 62
     7
370
    15
100
AcDbLine
 10
114.6535604208
 20
160.4058516492
 30
0.0
 11
114.6535604208
 21
155.9058516492
 31
0.0
  0
LINE
  5
56
330
1F
100
AcDbEntity
  8
0
  6
Continuous
 62
     7
370
    15
100
AcDbLine
 10
115.4535604208
 20
155.1058516492
 30
0.0
 11
114.6535604208
 21
155.9058516492
 31
0.0
  0
LINE
  5
57
330
1F
100
AcDbEntity
  8
0
  6
Continuous
 62
     7
370
    15
100
AcDbLine
 10
115.4535604208
 20
155.1058516492
 30
0.0
 11
115.4535604208
 21
71.9058516492
 31
0.0
  0
LINE
  5
58
330
1F
100
AcDbEntity
  8
0
  6
Continuous
 62
     7
370
    15
100
AcDbLine
 10
115.4535604208
 20
71.9058516492
 30
0.0
 11
115.2535604208
 21
71.7058516492
 31
0.0
  0
LINE
  5
59
330
1F
100
AcDbEntity
  8
0
  6
Continuous
 62
     7
370
    15
100
AcDbLine
 10
115.2535604208
 20
71.7058516492
 30
0.0
 11
115.2535604208
 21
60.9058516492
 31
0.0
  0
ARC
  5
5A
330
1F
100
AcDbEntity
  8
0
  6
Continuous
 62
     7
370
    15
100
AcDbCircle
 10
114.7535604208
 20
60.9058516492
 30
0.0
 40
0.5
100
AcDbArc
 50
270.0
 51
360.0
  0
LINE
  5
5B
330
1F
100
AcDbEntity
  8
0
  6
Continuous
 62
     7
370
    15
100
AcDbLine
 10
114.7535604208
 20
60.4058516492
 30
0.0
 11
113.4856112284
 21
60.4058516492
 31
0.0
  0
ARC
  5
5C
330
1F
100
AcDbEntity
  8
0
  6
Continuous
 62
     7
370
    15
100
AcDbCircle
 10
111.7535604208
 20
61.4058516492
 30
0.0
 40
2.000000166650229
100
AcDbArc
 50
209.9999972436
 51
330.0
  0
LINE
  5
5D
330
1F
100
AcDbEntity
  8
0
  6
Continuous
 62
     7
370
    15
100
AcDbLine
 10
109.8535604208
 20
107.9058516492
 30
0.0
 11
109.8535604208
 21
62.4058516492
 31
0.0
  0
ARC
  5
5E
330
1F
100
AcDbEntity
  8
0
  6
Continuous
 62
     7
370
    15
100
AcDbCircle
 10
110.3535604208
 20
62.4058516492
 30
0.0
 40
0.5
100
AcDbArc
 50
180.0
 51
270.0
  0
LINE
  5
5F
330
1F
100
AcDbEntity
  8
0
  6
Continuous
 62
     7
370
    15
100
AcDbLine
 10
113.1535604208
 20
61.9058516492
 30
0.0
 11
110.3535604208
 21
61.9058516492
 31
0.0
  0
ARC
  5
60
330
1F
100
AcDbEntity
  8
0
  6
Continuous
 62
     7
370
    15
100
AcDbCircle
 10
113.1535604208
 20
62.4058516492
 30
0.0
 40
0.5
100
AcDbArc
 50
270.0
 51
360.0
  0
LINE
  5
61
330
1F
100
AcDbEntity
  8
0
  6
Continuous
 62
     7
370
    15
100
AcDbLine
 10
113.6535604208
 20
107.9058516492
 30
0.0
 11
113.6535604208
 21
62.4058516492
 31
0.0
  0
ARC
  5
62
330
1F
100
AcDbEntity
  8
0
  6
Continuous
 62
     7
370
    15
100
AcDbCircle
 10
113.1535604208
 20
107.9058516492
 30
0.0
 40
0.5
100
AcDbArc
 50
0.0
 51
90.0
  0
LINE
  5
63
330
1F
100
AcDbEntity
  8
0
  6
Continuous
 62
     7
370
    15
100
AcDbLine
 10
113.1535604208
 20
108.4058516492
 30
0.0
 11
110.3535604208
 21
108.4058516492
 31
0.0
  0
LINE
  5
64
330
1F
100
AcDbEntity
  8
0
  6
Continuous
 62
     7
370
    15
100
AcDbLine
 10
113.6535604208
 20
153.6149546492
 30
0.0
 11
112.1865734208
 21
156.1558516492
 31
0.0
  0
ARC
  5
65
330
1F
100
AcDbEntity
  8
0
  6
Continuous
 62
     7
370
    15
100
AcDbCircle
 10
111.7535604208
 20
155.9058516492
 30
0.0
 40
0.5000002581689232
100
AcDbArc
 50
29.9999829197
 51
150.0000170803
  0
LINE
  5
66
330
1F
100
AcDbEntity
  8
0
  6
Continuous
 62
     7
370
    15
100
AcDbLine
 10
111.3205474208
 20
156.1558516492
 30
0.0
 11
109.8535604208
 21
153.6149546492
 31
0.0
  0
LINE
  5
67
330
1F
100
AcDbEntity
  8
0
  6
Continuous
 62
     7
370
    15
100
AcDbLine
 10
109.8535604208
 20
153.6149546492
 30
0.0
 11
109.8535604208
 21
110.4058516492
 31
0.0
  0
ARC
  5
68
330
1F
100
AcDbEntity
  8
0
  6
Continuous
 62
     7
370
    15
100
AcDbCircle
 10
110.3535604208
 20
110.4058516492
 30
0.0
 40
0.5
100
AcDbArc
 50
180.0
 51
270.0
  0
LINE
  5
69
330
1F
100
AcDbEntity
  8
0
  6
Continuous
 62
     7
370
    15
100
AcDbLine
 10
113.1535604208
 20
109.9058516492
 30
0.0
 11
110.3535604208
 21
109.9058516492
 31
0.0
  0
ARC
  5
6A
330
1F
100
AcDbEntity
  8
0
  6
Continuous
 62
     7
370
    15
100
AcDbCircle
 10
113.1535604208
 20
110.4058516492
 30
0.0
 40
0.5
100
AcDbArc
 50
270.0
 51
0.0
  0
LINE
  5
6B
330
1F
100
AcDbEntity
  8
0
  6
Continuous
 62
     7
370
    15
100
AcDbLine
 10
108.0535604208
 20
155.1058516492
 30
0.0
 11
108.0535604208
 21
71.9058516492
 31
0.0
  0
LINE
  5
6C
330
1F
100
AcDbEntity
  8
0
  6
Continuous
 62
     7
370
    15
100
AcDbLine
 10
108.8535604208
 20
155.9058516492
 30
0.0
 11
108.0535604208
 21
155.1058516492
 31
0.0
  0
LINE
  5
6D
330
1F
100
AcDbEntity
  8
0
  6
Continuous
 62
     7
370
    15
100
AcDbLine
 10
108.8535604208
 20
160.4058516492
 30
0.0
 11
108.8535604208
 21
155.9058516492
 31
0.0
  0
LINE
  5
6E
330
1F
100
AcDbEntity
  8
0
  6
Continuous
 62
     7
370
    15
100
AcDbLine
 10
114.6535604208
 20
160.4058516492
 30
0.0
 11
108.8535604208
 21
160.4058516492
 31
0.0
  0
ARC
  5
6F
330
1F
100
AcDbEntity
  8
0
  6
Continuous
 62
     7
370
    15
100
AcDbCircle
 10
102.1535600933
 20
62.4058516492
 30
0.0
 40
0.5
100
AcDbArc
 50
270.0
 51
360.0
  0
LINE
  5
70
330
1F
100
AcDbEntity
  8
0
  6
Continuous
 62
     7
370
    15
100
AcDbLine
 10
102.6535600933
 20
107.9058516492
 30
0.0
 11
102.6535600933
 21
62.4058516492
 31
0.0
  0
ARC
  5
71
330
1F
100
AcDbEntity
  8
0
  6
Continuous
 62
     7
370
    15
100
AcDbCircle
 10
102.1535600933
 20
107.9058516492
 30
0.0
 40
0.5
100
AcDbArc
 50
0.0
 51
90.0
  0
LINE
  5
72
330
1F
100
AcDbEntity
  8
0
  6
Continuous
 62
     7
370
    15
100
AcDbLine
 10
102.6535600933
 20
153.6149546492
 30
0.0
 11
102.6535600933
 21
110.4058516492
 31
0.0
  0
LINE
  5
73
330
1F
100
AcDbEntity
  8
0
  6
Continuous
 62
     7
370
    15
100
AcDbLine
 10
99.0215090933
 20
60.4058516492
 30
0.0
 11
97.7535600933
 21
60.4058516492
 31
0.0
  0
ARC
  5
74
330
1F
100
AcDbEntity
  8
0
  6
Continuous
 62
     7
370
    15
100
AcDbCircle
 10
99.3535600933
 20
107.9058516492
 30
0.0
 40
0.5
100
AcDbArc
 50
90.0
 51
180.0
  0
ARC
  5
75
330
1F
100
AcDbEntity
  8
0
  6
Continuous
 62
     7
370
    15
100
AcDbCircle
 10
97.7535600933
 20
60.9058516492
 30
0.0
 40
0.5
100
AcDbArc
 50
180.0
 51
270.0
  0
LINE
  5
76
330
1F
100
AcDbEntity
  8
0
  6
Continuous
 62
     7
370
    15
100
AcDbLine
 10
97.2535600933
 20
71.7058516492
 30
0.0
 11
97.2535600933
 21
60.9058516492
 31
0.0
  0
LINE
  5
77
330
1F
100
AcDbEntity
  8
0
  6
Continuous
 62
     7
370
    15
100
AcDbLine
 10
97.2535600933
 20
71.7058516492
 30
0.0
 11
97.0535600933
 21
71.9058516492
 31
0.0
  0
LINE
  5
78
330
1F
100
AcDbEntity
  8
0
  6
Continuous
 62
     7
370
    15
100
AcDbLine
 10
97.0535600933
 20
155.1058516492
 30
0.0
 11
97.0535600933
 21
71.9058516492
 31
0.0
  0
LINE
  5
79
330
1F
100
AcDbEntity
  8
0
  6
Continuous
 62
     7
370
    15
100
AcDbLine
 10
97.8535600933
 20
155.9058516492
 30
0.0
 11
97.0535600933
 21
155.1058516492
 31
0.0
  0
LINE
  5
7A
330
1F
100
AcDbEntity
  8
0
  6
Continuous
 62
     7
370
    15
100
AcDbLine
 10
97.8535600933
 20
160.4058516492
 30
0.0
 11
97.8535600933
 21
155.9058516492
 31
0.0
  0
LINE
  5
7B
330
1F
100
AcDbEntity
  8
0
  6
Continuous
 62
     7
370
    15
100
AcDbLine
 10
103.6535600933
 20
160.4058516492
 30
0.0
 11
97.8535600933
 21
160.4058516492
 31
0.0
  0
LINE
  5
7C
330
1F
100
AcDbEntity
  8
0
  6
Continuous
 62
     7
370
    15
100
AcDbLine
 10
103.6535600933
 20
160.4058516492
 30
0.0
 11
103.6535600933
 21
155.9058516492
 31
0.0
  0
LINE
  5
7D
330
1F
100
AcDbEntity
  8
0
  6
Continuous
 62
     7
370
    15
100
AcDbLine
 10
104.4535600933
 20
155.1058516492
 30
0.0
 11
103.6535600933
 21
155.9058516492
 31
0.0
  0
LINE
  5
7E
330
1F
100
AcDbEntity
  8
0
  6
Continuous
 62
     7
370
    15
100
AcDbLine
 10
104.4535600933
 20
155.1058516492
 30
0.0
 11
104.4535600933
 21
71.9058516492
 31
0.0
  0
LINE
  5
7F
330
1F
100
AcDbEntity
  8
0
  6
Continuous
 62
     7
370
    15
100
AcDbLine
 10
104.4535600933
 20
71.9058516492
 30
0.0
 11
104.2535600933
 21
71.7058516492
 31
0.0
  0
LINE
  5
80
330
1F
100
AcDbEntity
  8
0
  6
Continuous
 62
     7
370
    15
100
AcDbLine
 10
104.2535600933
 20
71.7058516492
 30
0.0
 11
104.2535600933
 21
60.9058516492
 31
0.0
  0
ARC
  5
81
330
1F
100
AcDbEntity
  8
0
  6
Continuous
 62
     7
370
    15
100
AcDbCircle
 10
103.7535600933
 20
60.9058516492
 30
0.0
 40
0.5
100
AcDbArc
 50
270.0
 51
360.0
  0
LINE
  5
82
330
1F
100
AcDbEntity
  8
0
  6
Continuous
 62
     7
370
    15
100
AcDbLine
 10
103.7535600933
 20
60.4058516492
 30
0.0
 11
102.4856109009
 21
60.4058516492
 31
0.0
  0
ARC
  5
83
330
1F
100
AcDbEntity
  8
0
  6
Continuous
 62
     7
370
    15
100
AcDbCircle
 10
100.7535600933
 20
61.4058516492
 30
0.0
 40
2.000000166650229
100
AcDbArc
 50
209.9999972436
 51
330.0
  0
LINE
  5
84
330
1F
100
AcDbEntity
  8
0
  6
Continuous
 62
     7
370
    15
100
AcDbLine
 10
98.8535600933
 20
107.9058516492
 30
0.0
 11
98.8535600933
 21
62.4058516492
 31
0.0
  0
ARC
  5
85
330
1F
100
AcDbEntity
  8
0
  6
Continuous
 62
     7
370
    15
100
AcDbCircle
 10
99.3535600933
 20
62.4058516492
 30
0.0
 40
0.5
100
AcDbArc
 50
180.0
 51
270.0
  0
LINE
  5
86
330
1F
100
AcDbEntity
  8
0
  6
Continuous
 62
     7
370
    15
100
AcDbLine
 10
102.1535600933
 20
61.9058516492
 30
0.0
 11
99.3535600933
 21
61.9058516492
 31
0.0
  0
LINE
  5
87
330
1F
100
AcDbEntity
  8
0
  6
Continuous
 62
     7
370
    15
100
AcDbLine
 10
100.3205470933
 20
156.1558516492
 30
0.0
 11
98.8535600933
 21
153.6149546492
 31
0.0
  0
LINE
  5
88
330
1F
100
AcDbEntity
  8
0
  6
Continuous
 62
     7
370
    15
100
AcDbLine
 10
98.8535600933
 20
153.6149546492
 30
0.0
 11
98.8535600933
 21
110.4058516492
 31
0.0
  0
ARC
  5
89
330
1F
100
AcDbEntity
  8
0
  6
Continuous
 62
     7
370
    15
100
AcDbCircle
 10
99.3535600933
 20
110.4058516492
 30
0.0
 40
0.5
100
AcDbArc
 50
180.0
 51
270.0
  0
LINE
  5
8A
330
1F
100
AcDbEntity
  8
0
  6
Continuous
 62
     7
370
    15
100
AcDbLine
 10
102.1535600933
 20
108.4058516492
 30
0.0
 11
99.3535600933
 21
108.4058516492
 31
0.0
  0
LINE
  5
8B
330
1F
100
AcDbEntity
  8
0
  6
Continuous
 62
     7
370
    15
100
AcDbLine
 10
102.6535600933
 20
153.6149546492
 30
0.0
 11
101.1865730933
 21
156.1558516492
 31
0.0
  0
ARC
  5
8C
330
1F
100
AcDbEntity
  8
0
  6
Continuous
 62
     7
370
    15
100
AcDbCircle
 10
100.7535600933
 20
155.9058516492
 30
0.0
 40
0.5000002581689232
100
AcDbArc
 50
29.9999829197
 51
150.0000170803
  0
LINE
  5
8D
330
1F
100
AcDbEntity
  8
0
  6
Continuous
 62
     7
370
    15
100
AcDbLine
 10
102.1535600933
 20
109.9058516492
 30
0.0
 11
99.3535600933
 21
109.9058516492
 31
0.0
  0
ARC
  5
8E
330
1F
100
AcDbEntity
  8
0
  6
Continuous
 62
     7
370
    15
100
AcDbCircle
 10
102.1535600933
 20
110.4058516492
 30
0.0
 40
0.5
100
AcDbArc
 50
270.0
 51
0.0
  0
ARC
  5
8F
330
1F
100
AcDbEntity
  8
0
  6
Continuous
 62
     7
370
    15
100
AcDbCircle
 10
88.3535614012
 20
110.4058516492
 30
0.0
 40
0.5
100
AcDbArc
 50
180.0
 51
270.0
  0
LINE
  5
90
330
1F
100
AcDbEntity
  8
0
  6
Continuous
 62
     7
370
    15
100
AcDbLine
 10
91.1535614012
 20
109.9058516492
 30
0.0
 11
88.3535614012
 21
109.9058516492
 31
0.0
  0
ARC
  5
91
330
1F
100
AcDbEntity
  8
0
  6
Continuous
 62
     7
370
    15
100
AcDbCircle
 10
91.1535614012
 20
110.4058516492
 30
0.0
 40
0.5
100
AcDbArc
 50
270.0
 51
360.0
  0
LINE
  5
92
330
1F
100
AcDbEntity
  8
0
  6
Continuous
 62
     7
370
    15
100
AcDbLine
 10
91.6535614012
 20
153.6149546492
 30
0.0
 11
91.6535614012
 21
110.4058516492
 31
0.0
  0
LINE
  5
93
330
1F
100
AcDbEntity
  8
0
  6
Continuous
 62
     7
370
    15
100
AcDbLine
 10
88.0215104012
 20
60.4058516492
 30
0.0
 11
86.7535614012
 21
60.4058516492
 31
0.0
  0
ARC
  5
94
330
1F
100
AcDbEntity
  8
0
  6
Continuous
 62
     7
370
    15
100
AcDbCircle
 10
88.3535614012
 20
107.9058516492
 30
0.0
 40
0.5
100
AcDbArc
 50
90.0
 51
180.0
  0
ARC
  5
95
330
1F
100
AcDbEntity
  8
0
  6
Continuous
 62
     7
370
    15
100
AcDbCircle
 10
86.7535614012
 20
60.9058516492
 30
0.0
 40
0.5
100
AcDbArc
 50
180.0
 51
270.0
  0
LINE
  5
96
330
1F
100
AcDbEntity
  8
0
  6
Continuous
 62
     7
370
    15
100
AcDbLine
 10
86.2535614012
 20
71.7058516492
 30
0.0
 11
86.2535614012
 21
60.9058516492
 31
0.0
  0
LINE
  5
97
330
1F
100
AcDbEntity
  8
0
  6
Continuous
 62
     7
370
    15
100
AcDbLine
 10
86.2535614012
 20
71.7058516492
 30
0.0
 11
86.0535614012
 21
71.9058516492
 31
0.0
  0
LINE
  5
98
330
1F
100
AcDbEntity
  8
0
  6
Continuous
 62
     7
370
    15
100
AcDbLine
 10
86.0535614012
 20
155.1058516492
 30
0.0
 11
86.0535614012
 21
71.9058516492
 31
0.0
  0
LINE
  5
99
330
1F
100
AcDbEntity
  8
0
  6
Continuous
 62
     7
370
    15
100
AcDbLine
 10
86.8535614012
 20
155.9058516492
 30
0.0
 11
86.0535614012
 21
155.1058516492
 31
0.0
  0
LINE
  5
9A
330
1F
100
AcDbEntity
  8
0
  6
Continuous
 62
     7
370
    15
100
AcDbLine
 10
86.8535614012
 20
160.4058516492
 30
0.0
 11
86.8535614012
 21
155.9058516492
 31
0.0
  0
LINE
  5
9B
330
1F
100
AcDbEntity
  8
0
  6
Continuous
 62
     7
370
    15
100
AcDbLine
 10
92.6535614012
 20
160.4058516492
 30
0.0
 11
86.8535614012
 21
160.4058516492
 31
0.0
  0
LINE
  5
9C
330
1F
100
AcDbEntity
  8
0
  6
Continuous
 62
     7
370
    15
100
AcDbLine
 10
92.6535614012
 20
160.4058516492
 30
0.0
 11
92.6535614012
 21
155.9058516492
 31
0.0
  0
LINE
  5
9D
330
1F
100
AcDbEntity
  8
0
  6
Continuous
 62
     7
370
    15
100
AcDbLine
 10
93.4535614012
 20
155.1058516492
 30
0.0
 11
92.6535614012
 21
155.9058516492
 31
0.0
  0
LINE
  5
9E
330
1F
100
AcDbEntity
  8
0
  6
Continuous
 62
     7
370
    15
100
AcDbLine
 10
93.4535614012
 20
155.1058516492
 30
0.0
 11
93.4535614012
 21
71.9058516492
 31
0.0
  0
LINE
  5
9F
330
1F
100
AcDbEntity
  8
0
  6
Continuous
 62
     7
370
    15
100
AcDbLine
 10
93.4535614012
 20
71.9058516492
 30
0.0
 11
93.2535614012
 21
71.7058516492
 31
0.0
  0
LINE
  5
A0
330
1F
100
AcDbEntity
  8
0
  6
Continuous
 62
     7
370
    15
100
AcDbLine
 10
93.2535614012
 20
71.7058516492
 30
0.0
 11
93.2535614012
 21
60.9058516492
 31
0.0
  0
ARC
  5
A1
330
1F
100
AcDbEntity
  8
0
  6
Continuous
 62
     7
370
    15
100
AcDbCircle
 10
92.7535614012
 20
60.9058516492
 30
0.0
 40
0.5
100
AcDbArc
 50
270.0
 51
360.0
  0
LINE
  5
A2
330
1F
100
AcDbEntity
  8
0
  6
Continuous
 62
     7
370
    15
100
AcDbLine
 10
92.7535614012
 20
60.4058516492
 30
0.0
 11
91.4856122087
 21
60.4058516492
 31
0.0
  0
ARC
  5
A3
330
1F
100
AcDbEntity
  8
0
  6
Continuous
 62
     7
370
    15
100
AcDbCircle
 10
89.7535614012
 20
61.4058516492
 30
0.0
 40
2.000000166650227
100
AcDbArc
 50
209.9999972436
 51
330.0
  0
LINE
  5
A4
330
1F
100
AcDbEntity
  8
0
  6
Continuous
 62
     7
370
    15
100
AcDbLine
 10
87.8535614012
 20
107.9058516492
 30
0.0
 11
87.8535614012
 21
62.4058516492
 31
0.0
  0
ARC
  5
A5
330
1F
100
AcDbEntity
  8
0
  6
Continuous
 62
     7
370
    15
100
AcDbCircle
 10
88.3535614012
 20
62.4058516492
 30
0.0
 40
0.5
100
AcDbArc
 50
180.0
 51
270.0
  0
LINE
  5
A6
330
1F
100
AcDbEntity
  8
0
  6
Continuous
 62
     7
370
    15
100
AcDbLine
 10
91.1535614012
 20
61.9058516492
 30
0.0
 11
88.3535614012
 21
61.9058516492
 31
0.0
  0
ARC
  5
A7
330
1F
100
AcDbEntity
  8
0
  6
Continuous
 62
     7
370
    15
100
AcDbCircle
 10
91.1535614012
 20
62.4058516492
 30
0.0
 40
0.5
100
AcDbArc
 50
270.0
 51
360.0
  0
LINE
  5
A8
330
1F
100
AcDbEntity
  8
0
  6
Continuous
 62
     7
370
    15
100
AcDbLine
 10
91.6535614012
 20
107.9058516492
 30
0.0
 11
91.6535614012
 21
62.4058516492
 31
0.0
  0
ARC
  5
A9
330
1F
100
AcDbEntity
  8
0
  6
Continuous
 62
     7
370
    15
100
AcDbCircle
 10
91.1535614012
 20
107.9058516492
 30
0.0
 40
0.5
100
AcDbArc
 50
360.0
 51
90.0
  0
LINE
  5
AA
330
1F
100
AcDbEntity
  8
0
  6
Continuous
 62
     7
370
    15
100
AcDbLine
 10
91.1535614012
 20
108.4058516492
 30
0.0
 11
88.3535614012
 21
108.4058516492
 31
0.0
  0
LINE
  5
AB
330
1F
100
AcDbEntity
  8
0
  6
Continuous
 62
     7
370
    15
100
AcDbLine
 10
91.6535614012
 20
153.6149546492
 30
0.0
 11
90.1865744012
 21
156.1558516492
 31
0.0
  0
ARC
  5
AC
330
1F
100
AcDbEntity
  8
0
  6
Continuous
 62
     7
370
    15
100
AcDbCircle
 10
89.7535614012
 20
155.9058516492
 30
0.0
 40
0.5000002581689232
100
AcDbArc
 50
29.9999829197
 51
150.0000170803
  0
LINE
  5
AD
330
1F
100
AcDbEntity
  8
0
  6
Continuous
 62
     7
370
    15
100
AcDbLine
 10
89.3205484012
 20
156.1558516492
 30
0.0
 11
87.8535614012
 21
153.6149546492
 31
0.0
  0
LINE
  5
AE
330
1F
100
AcDbEntity
  8
0
  6
Continuous
 62
     7
370
    15
100
AcDbLine
 10
87.8535614012
 20
153.6149546492
 30
0.0
 11
87.8535614012
 21
110.4058516492
 31
0.0
  0
LINE
  5
AF
330
1F
100
AcDbEntity
  8
0
  6
Continuous
 62
     7
370
    15
100
AcDbLine
 10
158.6535575492
 20
160.4058516492
 30
0.0
 11
158.6535575492
 21
155.9058516492
 31
0.0
  0
LINE
  5
B0
330
1F
100
AcDbEntity
  8
0
  6
Continuous
 62
     7
370
    15
100
AcDbLine
 10
159.4535575492
 20
155.1058516492
 30
0.0
 11
158.6535575492
 21
155.9058516492
 31
0.0
  0
LINE
  5
B1
330
1F
100
AcDbEntity
  8
0
  6
Continuous
 62
     7
370
    15
100
AcDbLine
 10
159.4535575492
 20
155.1058516492
 30
0.0
 11
159.4535575492
 21
71.9058516492
 31
0.0
  0
LINE
  5
B2
330
1F
100
AcDbEntity
  8
0
  6
Continuous
 62
     7
370
    15
100
AcDbLine
 10
159.2535575492
 20
71.7058516492
 30
0.0
 11
159.2535575492
 21
60.9058516492
 31
0.0
  0
ARC
  5
B3
330
1F
100
AcDbEntity
  8
0
  6
Continuous
 62
     7
370
    15
100
AcDbCircle
 10
158.7535575492
 20
60.9058516492
 30
0.0
 40
0.5
100
AcDbArc
 50
270.0
 51
360.0
  0
LINE
  5
B4
330
1F
100
AcDbEntity
  8
0
  6
Continuous
 62
     7
370
    15
100
AcDbLine
 10
157.6535575492
 20
153.6149546492
 30
0.0
 11
157.6535575492
 21
110.4058516492
 31
0.0
  0
LINE
  5
B5
330
1F
100
AcDbEntity
  8
0
  6
Continuous
 62
     7
370
    15
100
AcDbLine
 10
154.0215065492
 20
60.4058516492
 30
0.0
 11
152.7535575492
 21
60.4058516492
 31
0.0
  0
ARC
  5
B6
330
1F
100
AcDbEntity
  8
0
  6
Continuous
 62
     7
370
    15
100
AcDbCircle
 10
152.7535575492
 20
60.9058516492
 30
0.0
 40
0.5
100
AcDbArc
 50
180.0
 51
270.0
  0
LINE
  5
B7
330
1F
100
AcDbEntity
  8
0
  6
Continuous
 62
     7
370
    15
100
AcDbLine
 10
152.2535575492
 20
71.7058516492
 30
0.0
 11
152.2535575492
 21
60.9058516492
 31
0.0
  0
LINE
  5
B8
330
1F
100
AcDbEntity
  8
0
  6
Continuous
 62
     7
370
    15
100
AcDbLine
 10
152.2535575492
 20
71.7058516492
 30
0.0
 11
152.0535575492
 21
71.9058516492
 31
0.0
  0
LINE
  5
B9
330
1F
100
AcDbEntity
  8
0
  6
Continuous
 62
     7
370
    15
100
AcDbLine
 10
152.0535575492
 20
155.1058516492
 30
0.0
 11
152.0535575492
 21
71.9058516492
 31
0.0
  0
LINE
  5
BA
330
1F
100
AcDbEntity
  8
0
  6
Continuous
 62
     7
370
    15
100
AcDbLine
 10
152.8535575492
 20
155.9058516492
 30
0.0
 11
152.0535575492
 21
155.1058516492
 31
0.0
  0
LINE
  5
BB
330
1F
100
AcDbEntity
  8
0
  6
Continuous
 62
     7
370
    15
100
AcDbLine
 10
152.8535575492
 20
160.4058516492
 30
0.0
 11
152.8535575492
 21
155.9058516492
 31
0.0
  0
LINE
  5
BC
330
1F
100
AcDbEntity
  8
0
  6
Continuous
 62
     7
370
    15
100
AcDbLine
 10
158.6535575492
 20
160.4058516492
 30
0.0
 11
152.8535575492
 21
160.4058516492
 31
0.0
  0
LINE
  5
BD
330
1F
100
AcDbEntity
  8
0
  6
Continuous
 62
     7
370
    15
100
AcDbLine
 10
159.4535575492
 20
71.9058516492
 30
0.0
 11
159.2535575492
 21
71.7058516492
 31
0.0
  0
LINE
  5
BE
330
1F
100
AcDbEntity
  8
0
  6
Continuous
 62
     7
370
    15
100
AcDbLine
 10
158.7535575492
 20
60.4058516492
 30
0.0
 11
157.4856083568
 21
60.4058516492
 31
0.0
  0
ARC
  5
BF
330
1F
100
AcDbEntity
  8
0
  6
Continuous
 62
     7
370
    15
100
AcDbCircle
 10
155.7535575492
 20
61.4058516492
 30
0.0
 40
2.000000166650226
100
AcDbArc
 50
209.9999972436
 51
330.0
  0
LINE
  5
C0
330
1F
100
AcDbEntity
  8
0
  6
Continuous
 62
     7
370
    15
100
AcDbLine
 10
153.8535575492
 20
107.9058516492
 30
0.0
 11
153.8535575492
 21
62.4058516492
 31
0.0
  0
ARC
  5
C1
330
1F
100
AcDbEntity
  8
0
  6
Continuous
 62
     7
370
    15
100
AcDbCircle
 10
154.3535575492
 20
62.4058516492
 30
0.0
 40
0.5
100
AcDbArc
 50
180.0
 51
270.0
  0
LINE
  5
C2
330
1F
100
AcDbEntity
  8
0
  6
Continuous
 62
     7
370
    15
100
AcDbLine
 10
157.1535575492
 20
61.9058516492
 30
0.0
 11
154.3535575492
 21
61.9058516492
 31
0.0
  0
ARC
  5
C3
330
1F
100
AcDbEntity
  8
0
  6
Continuous
 62
     7
370
    15
100
AcDbCircle
 10
157.1535575492
 20
62.4058516492
 30
0.0
 40
0.5
100
AcDbArc
 50
270.0
 51
360.0
  0
LINE
  5
C4
330
1F
100
AcDbEntity
  8
0
  6
Continuous
 62
     7
370
    15
100
AcDbLine
 10
157.6535575492
 20
107.9058516492
 30
0.0
 11
157.6535575492
 21
62.4058516492
 31
0.0
  0
ARC
  5
C5
330
1F
100
AcDbEntity
  8
0
  6
Continuous
 62
     7
370
    15
100
AcDbCircle
 10
157.1535575492
 20
107.9058516492
 30
0.0
 40
0.5
100
AcDbArc
 50
0.0
 51
90.0
  0
LINE
  5
C6
330
1F
100
AcDbEntity
  8
0
  6
Continuous
 62
     7
370
    15
100
AcDbLine
 10
157.1535575492
 20
108.4058516492
 30
0.0
 11
154.3535575492
 21
108.4058516492
 31
0.0
  0
LINE
  5
C7
330
1F
100
AcDbEntity
  8
0
  6
Continuous
 62
     7
370
    15
100
AcDbLine
 10
157.6535575492
 20
153.6149546492
 30
0.0
 11
156.1865705492
 21
156.1558516492
 31
0.0
  0
ARC
  5
C8
330
1F
100
AcDbEntity
  8
0
  6
Continuous
 62
     7
370
    15
100
AcDbCircle
 10
155.7535575492
 20
155.9058516492
 30
0.0
 40
0.5000002581689232
100
AcDbArc
 50
29.9999829197
 51
150.0000170803
  0
LINE
  5
C9
330
1F
100
AcDbEntity
  8
0
  6
Continuous
 62
     7
370
    15
100
AcDbLine
 10
155.3205445492
 20
156.1558516492
 30
0.0
 11
153.8535575492
 21
153.6149546492
 31
0.0
  0
LINE
  5
CA
330
1F
100
AcDbEntity
  8
0
  6
Continuous
 62
     7
370
    15
100
AcDbLine
 10
153.8535575492
 20
153.6149546492
 30
0.0
 11
153.8535575492
 21
110.4058516492
 31
0.0
  0
LINE
  5
CB
330
1F
100
AcDbEntity
  8
0
  6
Continuous
 62
     7
370
    15
100
AcDbLine
 10
157.1535575492
 20
109.9058516492
 30
0.0
 11
154.3535575492
 21
109.9058516492
 31
0.0
  0
ARC
  5
CC
330
1F
100
AcDbEntity
  8
0
  6
Continuous
 62
     7
370
    15
100
AcDbCircle
 10
157.1535575492
 20
110.4058516492
 30
0.0
 40
0.5
100
AcDbArc
 50
270.0
 51
0.0
  0
ARC
  5
CD
330
1F
100
AcDbEntity
  8
0
  6
Continuous
 62
     7
370
    15
100
AcDbCircle
 10
154.3535575492
 20
107.9058516492
 30
0.0
 40
0.5
100
AcDbArc
 50
90.0
 51
180.0
  0
ARC
  5
CE
330
1F
100
AcDbEntity
  8
0
  6
Continuous
 62
     7
370
    15
100
AcDbCircle
 10
154.3535575492
 20
110.4058516492
 30
0.0
 40
0.5
100
AcDbArc
 50
180.0
 51
270.0
  0
LINE
  5
CF
330
1F
100
AcDbEntity
  8
0
  6
Continuous
 62
     7
370
    15
100
AcDbLine
 10
146.6535576772
 20
153.6149546492
 30
0.0
 11
146.6535576772
 21
110.4058516492
 31
0.0
  0
LINE
  5
D0
330
1F
100
AcDbEntity
  8
0
  6
Continuous
 62
     7
370
    15
100
AcDbLine
 10
141.2535576772
 20
71.7058516492
 30
0.0
 11
141.2535576772
 21
60.9058516492
 31
0.0
  0
LINE
  5
D1
330
1F
100
AcDbEntity
  8
0
  6
Continuous
 62
     7
370
    15
100
AcDbLine
 10
141.8535576772
 20
155.9058516492
 30
0.0
 11
141.0535576772
 21
155.1058516492
 31
0.0
  0
LINE
  5
D2
330
1F
100
AcDbEntity
  8
0
  6
Continuous
 62
     7
370
    15
100
AcDbLine
 10
141.8535576772
 20
160.4058516492
 30
0.0
 11
141.8535576772
 21
155.9058516492
 31
0.0
  0
LINE
  5
D3
330
1F
100
AcDbEntity
  8
0
  6
Continuous
 62
     7
370
    15
100
AcDbLine
 10
147.6535576772
 20
160.4058516492
 30
0.0
 11
141.8535576772
 21
160.4058516492
 31
0.0
  0
LINE
  5
D4
330
1F
100
AcDbEntity
  8
0
  6
Continuous
 62
     7
370
    15
100
AcDbLine
 10
141.2535576772
 20
71.7058516492
 30
0.0
 11
141.0535576772
 21
71.9058516492
 31
0.0
  0
LINE
  5
D5
330
1F
100
AcDbEntity
  8
0
  6
Continuous
 62
     7
370
    15
100
AcDbLine
 10
148.4535576772
 20
155.1058516492
 30
0.0
 11
148.4535576772
 21
71.9058516492
 31
0.0
  0
LINE
  5
D6
330
1F
100
AcDbEntity
  8
0
  6
Continuous
 62
     7
370
    15
100
AcDbLine
 10
148.4535576772
 20
71.9058516492
 30
0.0
 11
148.2535576772
 21
71.7058516492
 31
0.0
  0
LINE
  5
D7
330
1F
100
AcDbEntity
  8
0
  6
Continuous
 62
     7
370
    15
100
AcDbLine
 10
143.0215066772
 20
60.4058516492
 30
0.0
 11
141.7535576772
 21
60.4058516492
 31
0.0
  0
ARC
  5
D8
330
1F
100
AcDbEntity
  8
0
  6
Continuous
 62
     7
370
    15
100
AcDbCircle
 10
147.7535576772
 20
60.9058516492
 30
0.0
 40
0.5
100
AcDbArc
 50
270.0
 51
360.0
  0
LINE
  5
D9
330
1F
100
AcDbEntity
  8
0
  6
Continuous
 62
     7
370
    15
100
AcDbLine
 10
147.7535576772
 20
60.4058516492
 30
0.0
 11
146.4856084848
 21
60.4058516492
 31
0.0
  0
ARC
  5
DA
330
1F
100
AcDbEntity
  8
0
  6
Continuous
 62
     7
370
    15
100
AcDbCircle
 10
144.7535576772
 20
61.4058516492
 30
0.0
 40
2.000000166650226
100
AcDbArc
 50
209.9999972436
 51
330.0
  0
ARC
  5
DB
330
1F
100
AcDbEntity
  8
0
  6
Continuous
 62
     7
370
    15
100
AcDbCircle
 10
143.3535576772
 20
62.4058516492
 30
0.0
 40
0.5
100
AcDbArc
 50
180.0
 51
270.0
  0
LINE
  5
DC
330
1F
100
AcDbEntity
  8
0
  6
Continuous
 62
     7
370
    15
100
AcDbLine
 10
146.1535576772
 20
61.9058516492
 30
0.0
 11
143.3535576772
 21
61.9058516492
 31
0.0
  0
ARC
  5
DD
330
1F
100
AcDbEntity
  8
0
  6
Continuous
 62
     7
370
    15
100
AcDbCircle
 10
146.1535576772
 20
62.4058516492
 30
0.0
 40
0.5
100
AcDbArc
 50
270.0
 51
360.0
  0
LINE
  5
DE
330
1F
100
AcDbEntity
  8
0
  6
Continuous
 62
     7
370
    15
100
AcDbLine
 10
146.6535576772
 20
107.9058516492
 30
0.0
 11
146.6535576772
 21
62.4058516492
 31
0.0
  0
ARC
  5
DF
330
1F
100
AcDbEntity
  8
0
  6
Continuous
 62
     7
370
    15
100
AcDbCircle
 10
146.1535576772
 20
107.9058516492
 30
0.0
 40
0.5
100
AcDbArc
 50
0.0
 51
90.0
  0
LINE
  5
E0
330
1F
100
AcDbEntity
  8
0
  6
Continuous
 62
     7
370
    15
100
AcDbLine
 10
146.1535576772
 20
108.4058516492
 30
0.0
 11
143.3535576772
 21
108.4058516492
 31
0.0
  0
LINE
  5
E1
330
1F
100
AcDbEntity
  8
0
  6
Continuous
 62
     7
370
    15
100
AcDbLine
 10
146.6535576772
 20
153.6149546492
 30
0.0
 11
145.1865706772
 21
156.1558516492
 31
0.0
  0
ARC
  5
E2
330
1F
100
AcDbEntity
  8
0
  6
Continuous
 62
     7
370
    15
100
AcDbCircle
 10
144.7535576772
 20
155.9058516492
 30
0.0
 40
0.5000002581689232
100
AcDbArc
 50
29.9999829197
 51
150.0000170803
  0
LINE
  5
E3
330
1F
100
AcDbEntity
  8
0
  6
Continuous
 62
     7
370
    15
100
AcDbLine
 10
144.3205446772
 20
156.1558516492
 30
0.0
 11
142.8535576772
 21
153.6149546492
 31
0.0
  0
LINE
  5
E4
330
1F
100
AcDbEntity
  8
0
  6
Continuous
 62
     7
370
    15
100
AcDbLine
 10
142.8535576772
 20
153.6149546492
 30
0.0
 11
142.8535576772
 21
110.4058516492
 31
0.0
  0
ARC
  5
E5
330
1F
100
AcDbEntity
  8
0
  6
Continuous
 62
     7
370
    15
100
AcDbCircle
 10
141.7535576772
 20
60.9058516492
 30
0.0
 40
0.5
100
AcDbArc
 50
180.0
 51
270.0
  0
LINE
  5
E6
330
1F
100
AcDbEntity
  8
0
  6
Continuous
 62
     7
370
    15
100
AcDbLine
 10
146.1535576772
 20
109.9058516492
 30
0.0
 11
143.3535576772
 21
109.9058516492
 31
0.0
  0
ARC
  5
E7
330
1F
100
AcDbEntity
  8
0
  6
Continuous
 62
     7
370
    15
100
AcDbCircle
 10
146.1535576772
 20
110.4058516492
 30
0.0
 40
0.5
100
AcDbArc
 50
270.0
 51
0.0
  0
LINE
  5
E8
330
1F
100
AcDbEntity
  8
0
  6
Continuous
 62
     7
370
    15
100
AcDbLine
 10
141.0535576772
 20
155.1058516492
 30
0.0
 11
141.0535576772
 21
71.9058516492
 31
0.0
  0
LINE
  5
E9
330
1F
100
AcDbEntity
  8
0
  6
Continuous
 62
     7
370
    15
100
AcDbLine
 10
147.6535576772
 20
160.4058516492
 30
0.0
 11
147.6535576772
 21
155.9058516492
 31
0.0
  0
LINE
  5
EA
330
1F
100
AcDbEntity
  8
0
  6
Continuous
 62
     7
370
    15
100
AcDbLine
 10
148.4535576772
 20
155.1058516492
 30
0.0
 11
147.6535576772
 21
155.9058516492
 31
0.0
  0
LINE
  5
EB
330
1F
100
AcDbEntity
  8
0
  6
Continuous
 62
     7
370
    15
100
AcDbLine
 10
148.2535576772
 20
71.7058516492
 30
0.0
 11
148.2535576772
 21
60.9058516492
 31
0.0
  0
LINE
  5
EC
330
1F
100
AcDbEntity
  8
0
  6
Continuous
 62
     7
370
    15
100
AcDbLine
 10
142.8535576772
 20
107.9058516492
 30
0.0
 11
142.8535576772
 21
62.4058516492
 31
0.0
  0
ARC
  5
ED
330
1F
100
AcDbEntity
  8
0
  6
Continuous
 62
     7
370
    15
100
AcDbCircle
 10
143.3535576772
 20
110.4058516492
 30
0.0
 40
0.5
100
AcDbArc
 50
180.0
 51
270.0
  0
ARC
  5
EE
330
1F
100
AcDbEntity
  8
0
  6
Continuous
 62
     7
370
    15
100
AcDbCircle
 10
143.3535576772
 20
107.9058516492
 30
0.0
 40
0.5
100
AcDbArc
 50
90.0
 51
180.0
  0
LINE
  5
EF
330
1F
100
AcDbEntity
  8
0
  6
Continuous
 62
     7
370
    15
100
AcDbLine
 10
135.6535594404
 20
153.6149546492
 30
0.0
 11
135.6535594404
 21
110.4058516492
 31
0.0
  0
LINE
  5
F0
330
1F
100
AcDbEntity
  8
0
  6
Continuous
 62
     7
370
    15
100
AcDbLine
 10
132.0215084404
 20
60.4058516492
 30
0.0
 11
130.7535594404
 21
60.4058516492
 31
0.0
  0
ARC
  5
F1
330
1F
100
AcDbEntity
  8
0
  6
Continuous
 62
     7
370
    15
100
AcDbCircle
 10
132.3535594404
 20
107.9058516492
 30
0.0
 40
0.5
100
AcDbArc
 50
90.0
 51
180.0
  0
ARC
  5
F2
330
1F
100
AcDbEntity
  8
0
  6
Continuous
 62
     7
370
    15
100
AcDbCircle
 10
130.7535594404
 20
60.9058516492
 30
0.0
 40
0.5
100
AcDbArc
 50
180.0
 51
270.0
  0
LINE
  5
F3
330
1F
100
AcDbEntity
  8
0
  6
Continuous
 62
     7
370
    15
100
AcDbLine
 10
130.2535594404
 20
71.7058516492
 30
0.0
 11
130.2535594404
 21
60.9058516492
 31
0.0
  0
LINE
  5
F4
330
1F
100
AcDbEntity
  8
0
  6
Continuous
 62
     7
370
    15
100
AcDbLine
 10
130.2535594404
 20
71.7058516492
 30
0.0
 11
130.0535594404
 21
71.9058516492
 31
0.0
  0
LINE
  5
F5
330
1F
100
AcDbEntity
  8
0
  6
Continuous
 62
     7
370
    15
100
AcDbLine
 10
130.0535594404
 20
155.1058516492
 30
0.0
 11
130.0535594404
 21
71.9058516492
 31
0.0
  0
LINE
  5
F6
330
1F
100
AcDbEntity
  8
0
  6
Continuous
 62
     7
370
    15
100
AcDbLine
 10
130.8535594404
 20
155.9058516492
 30
0.0
 11
130.0535594404
 21
155.1058516492
 31
0.0
  0
LINE
  5
F7
330
1F
100
AcDbEntity
  8
0
  6
Continuous
 62
     7
370
    15
100
AcDbLine
 10
130.8535594404
 20
160.4058516492
 30
0.0
 11
130.8535594404
 21
155.9058516492
 31
0.0
  0
LINE
  5
F8
330
1F
100
AcDbEntity
  8
0
  6
Continuous
 62
     7
370
    15
100
AcDbLine
 10
136.6535594404
 20
160.4058516492
 30
0.0
 11
130.8535594404
 21
160.4058516492
 31
0.0
  0
LINE
  5
F9
330
1F
100
AcDbEntity
  8
0
  6
Continuous
 62
     7
370
    15
100
AcDbLine
 10
136.6535594404
 20
160.4058516492
 30
0.0
 11
136.6535594404
 21
155.9058516492
 31
0.0
  0
LINE
  5
FA
330
1F
100
AcDbEntity
  8
0
  6
Continuous
 62
     7
370
    15
100
AcDbLine
 10
137.4535594404
 20
155.1058516492
 30
0.0
 11
136.6535594404
 21
155.9058516492
 31
0.0
  0
LINE
  5
FB
330
1F
100
AcDbEntity
  8
0
  6
Continuous
 62
     7
370
    15
100
AcDbLine
 10
137.4535594404
 20
155.1058516492
 30
0.0
 11
137.4535594404
 21
71.9058516492
 31
0.0
  0
LINE
  5
FC
330
1F
100
AcDbEntity
  8
0
  6
Continuous
 62
     7
370
    15
100
AcDbLine
 10
137.4535594404
 20
71.9058516492
 30
0.0
 11
137.2535594404
 21
71.7058516492
 31
0.0
  0
LINE
  5
FD
330
1F
100
AcDbEntity
  8
0
  6
Continuous
 62
     7
370
    15
100
AcDbLine
 10
137.2535594404
 20
71.7058516492
 30
0.0
 11
137.2535594404
 21
60.9058516492
 31
0.0
  0
ARC
  5
FE
330
1F
100
AcDbEntity
  8
0
  6
Continuous
 62
     7
370
    15
100
AcDbCircle
 10
136.7535594404
 20
60.9058516492
 30
0.0
 40
0.5
100
AcDbArc
 50
270.0
 51
360.0
  0
LINE
  5
FF
330
1F
100
AcDbEntity
  8
0
  6
Continuous
 62
     7
370
    15
100
AcDbLine
 10
136.7535594404
 20
60.4058516492
 30
0.0
 11
135.485610248
 21
60.4058516492
 31
0.0
  0
ARC
  5
100
330
1F
100
AcDbEntity
  8
0
  6
Continuous
 62
     7
370
    15
100
AcDbCircle
 10
133.7535594404
 20
61.4058516492
 30
0.0
 40
2.00000016665024
100
AcDbArc
 50
209.9999972436
 51
330.0
  0
LINE
  5
101
330
1F
100
AcDbEntity
  8
0
  6
Continuous
 62
     7
370
    15
100
AcDbLine
 10
131.8535594404
 20
107.9058516492
 30
0.0
 11
131.8535594404
 21
62.4058516492
 31
0.0
  0
ARC
  5
102
330
1F
100
AcDbEntity
  8
0
  6
Continuous
 62
     7
370
    15
100
AcDbCircle
 10
132.3535594404
 20
62.4058516492
 30
0.0
 40
0.5
100
AcDbArc
 50
180.0
 51
270.0
  0
LINE
  5
103
330
1F
100
AcDbEntity
  8
0
  6
Continuous
 62
     7
370
    15
100
AcDbLine
 10
135.1535594404
 20
61.9058516492
 30
0.0
 11
132.3535594404
 21
61.9058516492
 31
0.0
  0
ARC
  5
104
330
1F
100
AcDbEntity
  8
0
  6
Continuous
 62
     7
370
    15
100
AcDbCircle
 10
135.1535594404
 20
62.4058516492
 30
0.0
 40
0.5
100
AcDbArc
 50
270.0
 51
360.0
  0
LINE
  5
105
330
1F
100
AcDbEntity
  8
0
  6
Continuous
 62
     7
370
    15
100
AcDbLine
 10
135.6535594404
 20
107.9058516492
 30
0.0
 11
135.6535594404
 21
62.4058516492
 31
0.0
  0
ARC
  5
106
330
1F
100
AcDbEntity
  8
0
  6
Continuous
 62
     7
370
    15
100
AcDbCircle
 10
135.1535594404
 20
107.9058516492
 30
0.0
 40
0.5
100
AcDbArc
 50
0.0
 51
90.0
  0
LINE
  5
107
330
1F
100
AcDbEntity
  8
0
  6
Continuous
 62
     7
370
    15
100
AcDbLine
 10
135.1535594404
 20
108.4058516492
 30
0.0
 11
132.3535594404
 21
108.4058516492
 31
0.0
  0
LINE
  5
108
330
1F
100
AcDbEntity
  8
0
  6
Continuous
 62
     7
370
    15
100
AcDbLine
 10
135.6535594404
 20
153.6149546492
 30
0.0
 11
134.1865724404
 21
156.1558516492
 31
0.0
  0
ARC
  5
109
330
1F
100
AcDbEntity
  8
0
  6
Continuous
 62
     7
370
    15
100
AcDbCircle
 10
133.7535594404
 20
155.9058516492
 30
0.0
 40
0.5000002581689232
100
AcDbArc
 50
29.9999829197
 51
150.0000170803
  0
LINE
  5
10A
330
1F
100
AcDbEntity
  8
0
  6
Continuous
 62
     7
370
    15
100
AcDbLine
 10
133.3205464404
 20
156.1558516492
 30
0.0
 11
131.8535594404
 21
153.6149546492
 31
0.0
  0
LINE
  5
10B
330
1F
100
AcDbEntity
  8
0
  6
Continuous
 62
     7
370
    15
100
AcDbLine
 10
131.8535594404
 20
153.6149546492
 30
0.0
 11
131.8535594404
 21
110.4058516492
 31
0.0
  0
ARC
  5
10C
330
1F
100
AcDbEntity
  8
0
  6
Continuous
 62
     7
370
    15
100
AcDbCircle
 10
132.3535594404
 20
110.4058516492
 30
0.0
 40
0.5000000000000142
100
AcDbArc
 50
180.0
 51
270.0
  0
LINE
  5
10D
330
1F
100
AcDbEntity
  8
0
  6
Continuous
 62
     7
370
    15
100
AcDbLine
 10
135.1535594404
 20
109.9058516492
 30
0.0
 11
132.3535594404
 21
109.9058516492
 31
0.0
  0
ARC
  5
10E
330
1F
100
AcDbEntity
  8
0
  6
Continuous
 62
     7
370
    15
100
AcDbCircle
 10
135.1535594404
 20
110.4058516492
 30
0.0
 40
0.5
100
AcDbArc
 50
270.0
 51
0.0
  0
LINE
  5
10F
330
1F
100
AcDbEntity
  8
0
  6
Continuous
 62
     7
370
    15
100
AcDbLine
 10
120.853559113
 20
153.6149546492
 30
0.0
 11
120.853559113
 21
110.4058516492
 31
0.0
  0
ARC
  5
110
330
1F
100
AcDbEntity
  8
0
  6
Continuous
 62
     7
370
    15
100
AcDbCircle
 10
121.353559113
 20
110.4058516492
 30
0.0
 40
0.5
100
AcDbArc
 50
180.0
 51
270.0
  0
LINE
  5
111
330
1F
100
AcDbEntity
  8
0
  6
Continuous
 62
     7
370
    15
100
AcDbLine
 10
124.153559113
 20
109.9058516492
 30
0.0
 11
121.353559113
 21
109.9058516492
 31
0.0
  0
ARC
  5
112
330
1F
100
AcDbEntity
  8
0
  6
Continuous
 62
     7
370
    15
100
AcDbCircle
 10
124.153559113
 20
110.4058516492
 30
0.0
 40
0.5
100
AcDbArc
 50
270.0
 51
0.0
  0
ARC
  5
113
330
1F
100
AcDbEntity
  8
0
  6
Continuous
 62
     7
370
    15
100
AcDbCircle
 10
121.353559113
 20
107.9058516492
 30
0.0
 40
0.5
100
AcDbArc
 50
90.0
 51
180.0
  0
LINE
  5
114
330
1F
100
AcDbEntity
  8
0
  6
Continuous
 62
     7
370
    15
100
AcDbLine
 10
120.853559113
 20
107.9058516492
 30
0.0
 11
120.853559113
 21
62.4058516492
 31
0.0
  0
ARC
  5
115
330
1F
100
AcDbEntity
  8
0
  6
Continuous
 62
     7
370
    15
100
AcDbCircle
 10
121.353559113
 20
62.4058516492
 30
0.0
 40
0.5
100
AcDbArc
 50
180.0
 51
270.0
  0
LINE
  5
116
330
1F
100
AcDbEntity
  8
0
  6
Continuous
 62
     7
370
    15
100
AcDbLine
 10
124.153559113
 20
61.9058516492
 30
0.0
 11
121.353559113
 21
61.9058516492
 31
0.0
  0
ARC
  5
117
330
1F
100
AcDbEntity
  8
0
  6
Continuous
 62
     7
370
    15
100
AcDbCircle
 10
124.153559113
 20
62.4058516492
 30
0.0
 40
0.5
100
AcDbArc
 50
270.0
 51
360.0
  0
LINE
  5
118
330
1F
100
AcDbEntity
  8
0
  6
Continuous
 62
     7
370
    15
100
AcDbLine
 10
124.653559113
 20
107.9058516492
 30
0.0
 11
124.653559113
 21
62.4058516492
 31
0.0
  0
ARC
  5
119
330
1F
100
AcDbEntity
  8
0
  6
Continuous
 62
     7
370
    15
100
AcDbCircle
 10
124.153559113
 20
107.9058516492
 30
0.0
 40
0.5
100
AcDbArc
 50
0.0
 51
90.0
  0
LINE
  5
11A
330
1F
100
AcDbEntity
  8
0
  6
Continuous
 62
     7
370
    15
100
AcDbLine
 10
121.021508113
 20
60.4058516492
 30
0.0
 11
119.753559113
 21
60.4058516492
 31
0.0
  0
LINE
  5
11B
330
1F
100
AcDbEntity
  8
0
  6
Continuous
 62
     7
370
    15
100
AcDbLine
 10
119.253559113
 20
71.7058516492
 30
0.0
 11
119.053559113
 21
71.9058516492
 31
0.0
  0
LINE
  5
11C
330
1F
100
AcDbEntity
  8
0
  6
Continuous
 62
     7
370
    15
100
AcDbLine
 10
119.053559113
 20
155.1058516492
 30
0.0
 11
119.053559113
 21
71.9058516492
 31
0.0
  0
LINE
  5
11D
330
1F
100
AcDbEntity
  8
0
  6
Continuous
 62
     7
370
    15
100
AcDbLine
 10
119.853559113
 20
155.9058516492
 30
0.0
 11
119.053559113
 21
155.1058516492
 31
0.0
  0
LINE
  5
11E
330
1F
100
AcDbEntity
  8
0
  6
Continuous
 62
     7
370
    15
100
AcDbLine
 10
119.853559113
 20
160.4058516492
 30
0.0
 11
119.853559113
 21
155.9058516492
 31
0.0
  0
LINE
  5
11F
330
1F
100
AcDbEntity
  8
0
  6
Continuous
 62
     7
370
    15
100
AcDbLine
 10
125.653559113
 20
160.4058516492
 30
0.0
 11
119.853559113
 21
160.4058516492
 31
0.0
  0
LINE
  5
120
330
1F
100
AcDbEntity
  8
0
  6
Continuous
 62
     7
370
    15
100
AcDbLine
 10
125.653559113
 20
160.4058516492
 30
0.0
 11
125.653559113
 21
155.9058516492
 31
0.0
  0
LINE
  5
121
330
1F
100
AcDbEntity
  8
0
  6
Continuous
 62
     7
370
    15
100
AcDbLine
 10
126.453559113
 20
155.1058516492
 30
0.0
 11
125.653559113
 21
155.9058516492
 31
0.0
  0
LINE
  5
122
330
1F
100
AcDbEntity
  8
0
  6
Continuous
 62
     7
370
    15
100
AcDbLine
 10
126.453559113
 20
155.1058516492
 30
0.0
 11
126.453559113
 21
71.9058516492
 31
0.0
  0
LINE
  5
123
330
1F
100
AcDbEntity
  8
0
  6
Continuous
 62
     7
370
    15
100
AcDbLine
 10
126.453559113
 20
71.9058516492
 30
0.0
 11
126.253559113
 21
71.7058516492
 31
0.0
  0
LINE
  5
124
330
1F
100
AcDbEntity
  8
0
  6
Continuous
 62
     7
370
    15
100
AcDbLine
 10
126.253559113
 20
71.7058516492
 30
0.0
 11
126.253559113
 21
60.9058516492
 31
0.0
  0
ARC
  5
125
330
1F
100
AcDbEntity
  8
0
  6
Continuous
 62
     7
370
    15
100
AcDbCircle
 10
125.753559113
 20
60.9058516492
 30
0.0
 40
0.5
100
AcDbArc
 50
270.0
 51
360.0
  0
LINE
  5
126
330
1F
100
AcDbEntity
  8
0
  6
Continuous
 62
     7
370
    15
100
AcDbLine
 10
124.653559113
 20
153.6149546492
 30
0.0
 11
124.653559113
 21
110.4058516492
 31
0.0
  0
LINE
  5
127
330
1F
100
AcDbEntity
  8
0
  6
Continuous
 62
     7
370
    15
100
AcDbLine
 10
124.153559113
 20
108.4058516492
 30
0.0
 11
121.353559113
 21
108.4058516492
 31
0.0
  0
LINE
  5
128
330
1F
100
AcDbEntity
  8
0
  6
Continuous
 62
     7
370
    15
100
AcDbLine
 10
124.653559113
 20
153.6149546492
 30
0.0
 11
123.186572113
 21
156.1558516492
 31
0.0
  0
LINE
  5
129
330
1F
100
AcDbEntity
  8
0
  6
Continuous
 62
     7
370
    15
100
AcDbLine
 10
125.753559113
 20
60.4058516492
 30
0.0
 11
124.4856099205
 21
60.4058516492
 31
0.0
  0
ARC
  5
12A
330
1F
100
AcDbEntity
  8
0
  6
Continuous
 62
     7
370
    15
100
AcDbCircle
 10
122.753559113
 20
61.4058516492
 30
0.0
 40
2.00000016665024
100
AcDbArc
 50
209.9999972436
 51
330.0
  0
LINE
  5
12B
330
1F
100
AcDbEntity
  8
0
  6
Continuous
 62
     7
370
    15
100
AcDbLine
 10
119.253559113
 20
71.7058516492
 30
0.0
 11
119.253559113
 21
60.9058516492
 31
0.0
  0
ARC
  5
12C
330
1F
100
AcDbEntity
  8
0
  6
Continuous
 62
     7
370
    15
100
AcDbCircle
 10
122.753559113
 20
155.9058516492
 30
0.0
 40
0.5000002581689232
100
AcDbArc
 50
29.9999829197
 51
150.0000170803
  0
ARC
  5
12D
330
1F
100
AcDbEntity
  8
0
  6
Continuous
 62
     7
370
    15
100
AcDbCircle
 10
119.753559113
 20
60.9058516492
 30
0.0
 40
0.5
100
AcDbArc
 50
180.0
 51
270.0
  0
LINE
  5
12E
330
1F
100
AcDbEntity
  8
0
  6
Continuous
 62
     7
370
    15
100
AcDbLine
 10
122.320546113
 20
156.1558516492
 30
0.0
 11
120.853559113
 21
153.6149546492
 31
0.0
  0
LINE
  5
12F
330
1F
100
AcDbEntity
  8
0
  6
Continuous
 62
     7
370
    15
100
AcDbLine
 10
179.653555658
 20
153.6149546492
 30
0.0
 11
179.653555658
 21
110.4058516492
 31
0.0
  0
LINE
  5
130
330
1F
100
AcDbEntity
  8
0
  6
Continuous
 62
     7
370
    15
100
AcDbLine
 10
176.021504658
 20
60.4058516492
 30
0.0
 11
174.753555658
 21
60.4058516492
 31
0.0
  0
ARC
  5
131
330
1F
100
AcDbEntity
  8
0
  6
Continuous
 62
     7
370
    15
100
AcDbCircle
 10
176.353555658
 20
107.9058516492
 30
0.0
 40
0.5
100
AcDbArc
 50
90.0
 51
180.0
  0
ARC
  5
132
330
1F
100
AcDbEntity
  8
0
  6
Continuous
 62
     7
370
    15
100
AcDbCircle
 10
174.753555658
 20
60.9058516492
 30
0.0
 40
0.5
100
AcDbArc
 50
180.0
 51
270.0
  0
LINE
  5
133
330
1F
100
AcDbEntity
  8
0
  6
Continuous
 62
     7
370
    15
100
AcDbLine
 10
174.253555658
 20
71.7058516492
 30
0.0
 11
174.253555658
 21
60.9058516492
 31
0.0
  0
LINE
  5
134
330
1F
100
AcDbEntity
  8
0
  6
Continuous
 62
     7
370
    15
100
AcDbLine
 10
174.253555658
 20
71.7058516492
 30
0.0
 11
174.053555658
 21
71.9058516492
 31
0.0
  0
LINE
  5
135
330
1F
100
AcDbEntity
  8
0
  6
Continuous
 62
     7
370
    15
100
AcDbLine
 10
174.053555658
 20
155.1058516492
 30
0.0
 11
174.053555658
 21
71.9058516492
 31
0.0
  0
LINE
  5
136
330
1F
100
AcDbEntity
  8
0
  6
Continuous
 62
     7
370
    15
100
AcDbLine
 10
174.853555658
 20
155.9058516492
 30
0.0
 11
174.053555658
 21
155.1058516492
 31
0.0
  0
LINE
  5
137
330
1F
100
AcDbEntity
  8
0
  6
Continuous
 62
     7
370
    15
100
AcDbLine
 10
174.853555658
 20
160.4058516492
 30
0.0
 11
174.853555658
 21
155.9058516492
 31
0.0
  0
LINE
  5
138
330
1F
100
AcDbEntity
  8
0
  6
Continuous
 62
     7
370
    15
100
AcDbLine
 10
180.653555658
 20
160.4058516492
 30
0.0
 11
174.853555658
 21
160.4058516492
 31
0.0
  0
LINE
  5
139
330
1F
100
AcDbEntity
  8
0
  6
Continuous
 62
     7
370
    15
100
AcDbLine
 10
180.653555658
 20
160.4058516492
 30
0.0
 11
180.653555658
 21
155.9058516492
 31
0.0
  0
LINE
  5
13A
330
1F
100
AcDbEntity
  8
0
  6
Continuous
 62
     7
370
    15
100
AcDbLine
 10
181.453555658
 20
155.1058516492
 30
0.0
 11
180.653555658
 21
155.9058516492
 31
0.0
  0
LINE
  5
13B
330
1F
100
AcDbEntity
  8
0
  6
Continuous
 62
     7
370
    15
100
AcDbLine
 10
181.453555658
 20
155.1058516492
 30
0.0
 11
181.453555658
 21
71.9058516492
 31
0.0
  0
LINE
  5
13C
330
1F
100
AcDbEntity
  8
0
  6
Continuous
 62
     7
370
    15
100
AcDbLine
 10
181.453555658
 20
71.9058516492
 30
0.0
 11
181.253555658
 21
71.7058516492
 31
0.0
  0
LINE
  5
13D
330
1F
100
AcDbEntity
  8
0
  6
Continuous
 62
     7
370
    15
100
AcDbLine
 10
181.253555658
 20
71.7058516492
 30
0.0
 11
181.253555658
 21
60.9058516492
 31
0.0
  0
ARC
  5
13E
330
1F
100
AcDbEntity
  8
0
  6
Continuous
 62
     7
370
    15
100
AcDbCircle
 10
180.753555658
 20
60.9058516492
 30
0.0
 40
0.5
100
AcDbArc
 50
270.0
 51
360.0
  0
LINE
  5
13F
330
1F
100
AcDbEntity
  8
0
  6
Continuous
 62
     7
370
    15
100
AcDbLine
 10
180.753555658
 20
60.4058516492
 30
0.0
 11
179.4856064656
 21
60.4058516492
 31
0.0
  0
ARC
  5
140
330
1F
100
AcDbEntity
  8
0
  6
Continuous
 62
     7
370
    15
100
AcDbCircle
 10
177.753555658
 20
61.4058516492
 30
0.0
 40
2.00000016665024
100
AcDbArc
 50
209.9999972436
 51
330.0
  0
LINE
  5
141
330
1F
100
AcDbEntity
  8
0
  6
Continuous
 62
     7
370
    15
100
AcDbLine
 10
175.853555658
 20
107.9058516492
 30
0.0
 11
175.853555658
 21
62.4058516492
 31
0.0
  0
ARC
  5
142
330
1F
100
AcDbEntity
  8
0
  6
Continuous
 62
     7
370
    15
100
AcDbCircle
 10
176.353555658
 20
62.4058516492
 30
0.0
 40
0.5
100
AcDbArc
 50
180.0
 51
270.0
  0
LINE
  5
143
330
1F
100
AcDbEntity
  8
0
  6
Continuous
 62
     7
370
    15
100
AcDbLine
 10
179.153555658
 20
61.9058516492
 30
0.0
 11
176.353555658
 21
61.9058516492
 31
0.0
  0
ARC
  5
144
330
1F
100
AcDbEntity
  8
0
  6
Continuous
 62
     7
370
    15
100
AcDbCircle
 10
179.153555658
 20
62.4058516492
 30
0.0
 40
0.5
100
AcDbArc
 50
270.0
 51
360.0
  0
LINE
  5
145
330
1F
100
AcDbEntity
  8
0
  6
Continuous
 62
     7
370
    15
100
AcDbLine
 10
179.653555658
 20
107.9058516492
 30
0.0
 11
179.653555658
 21
62.4058516492
 31
0.0
  0
ARC
  5
146
330
1F
100
AcDbEntity
  8
0
  6
Continuous
 62
     7
370
    15
100
AcDbCircle
 10
179.153555658
 20
107.9058516492
 30
0.0
 40
0.5
100
AcDbArc
 50
0.0
 51
90.0
  0
LINE
  5
147
330
1F
100
AcDbEntity
  8
0
  6
Continuous
 62
     7
370
    15
100
AcDbLine
 10
179.153555658
 20
108.4058516492
 30
0.0
 11
176.353555658
 21
108.4058516492
 31
0.0
  0
LINE
  5
148
330
1F
100
AcDbEntity
  8
0
  6
Continuous
 62
     7
370
    15
100
AcDbLine
 10
179.653555658
 20
153.6149546492
 30
0.0
 11
178.186568658
 21
156.1558516492
 31
0.0
  0
ARC
  5
149
330
1F
100
AcDbEntity
  8
0
  6
Continuous
 62
     7
370
    15
100
AcDbCircle
 10
177.753555658
 20
155.9058516492
 30
0.0
 40
0.5000002581689232
100
AcDbArc
 50
29.9999829197
 51
150.0000170803
  0
LINE
  5
14A
330
1F
100
AcDbEntity
  8
0
  6
Continuous
 62
     7
370
    15
100
AcDbLine
 10
177.320542658
 20
156.1558516492
 30
0.0
 11
175.853555658
 21
153.6149546492
 31
0.0
  0
LINE
  5
14B
330
1F
100
AcDbEntity
  8
0
  6
Continuous
 62
     7
370
    15
100
AcDbLine
 10
175.853555658
 20
153.6149546492
 30
0.0
 11
175.853555658
 21
110.4058516492
 31
0.0
  0
ARC
  5
14C
330
1F
100
AcDbEntity
  8
0
  6
Continuous
 62
     7
370
    15
100
AcDbCircle
 10
176.353555658
 20
110.4058516492
 30
0.0
 40
0.5
100
AcDbArc
 50
180.0
 51
270.0
  0
LINE
  5
14D
330
1F
100
AcDbEntity
  8
0
  6
Continuous
 62
     7
370
    15
100
AcDbLine
 10
179.153555658
 20
109.9058516492
 30
0.0
 11
176.353555658
 21
109.9058516492
 31
0.0
  0
ARC
  5
14E
330
1F
100
AcDbEntity
  8
0
  6
Continuous
 62
     7
370
    15
100
AcDbCircle
 10
179.153555658
 20
110.4058516492
 30
0.0
 40
0.5
100
AcDbArc
 50
270.0
 51
0.0
  0
LINE
  5
14F
330
1F
100
AcDbEntity
  8
0
  6
Continuous
 62
     7
370
    15
100
AcDbLine
 10
193.6535520231
 20
55.9058526012
 30
0.0
 11
193.6535520231
 21
175.9058526012
 31
0.0
  0
ARC
  5
150
330
1F
100
AcDbEntity
  8
0
  6
Continuous
 62
     7
370
    15
100
AcDbCircle
 10
193.1535520231
 20
55.9058526012
 30
0.0
 40
0.5
100
AcDbArc
 50
270.0
 51
0.0
  0
ARC
  5
151
330
1F
100
AcDbEntity
  8
0
  6
Continuous
 62
     7
370
    15
100
AcDbCircle
 10
189.6535520231
 20
55.9058526012
 30
0.0
 40
0.5000000000000284
100
AcDbArc
 50
180.0
 51
270.0
  0
LINE
  5
152
330
1F
100
AcDbEntity
  8
0
  6
Continuous
 62
     7
370
    15
100
AcDbLine
 10
189.1535520231
 20
56.4058526012
 30
0.0
 11
189.1535520231
 21
55.9058526012
 31
0.0
  0
ARC
  5
153
330
1F
100
AcDbEntity
  8
0
  6
Continuous
 62
     7
370
    15
100
AcDbCircle
 10
174.493555658
 20
159.9058516492
 30
0.0
 40
0.1600000000000039
100
AcDbArc
 50
331.438915
 51
0.0
  0
LINE
  5
154
330
1F
100
AcDbEntity
  8
0
  6
Continuous
 62
     7
370
    15
100
AcDbLine
 10
174.403555658
 20
159.4058516492
 30
0.0
 11
174.6340849217
 21
159.829356381
 31
0.0
  0
LINE
  5
155
330
1F
100
AcDbEntity
  8
0
  6
Continuous
 62
     7
370
    15
100
AcDbLine
 10
174.634084658
 20
158.9823466492
 30
0.0
 11
174.403555658
 21
159.4058516492
 31
0.0
  0
LINE
  5
156
330
1F
100
AcDbEntity
  8
0
  6
Continuous
 62
     7
370
    15
100
AcDbLine
 10
174.403555342
 20
158.4058516492
 30
0.0
 11
174.6340846057
 21
158.829356381
 31
0.0
  0
LINE
  5
157
330
1F
100
AcDbEntity
  8
0
  6
Continuous
 62
     7
370
    15
100
AcDbLine
 10
174.634084342
 20
157.9823466492
 30
0.0
 11
174.403555342
 21
158.4058516492
 31
0.0
  0
LINE
  5
158
330
1F
100
AcDbEntity
  8
0
  6
Continuous
 62
     7
370
    15
100
AcDbLine
 10
174.449010342
 20
156.4893566492
 30
0.0
 11
174.634084342
 21
156.8293566492
 31
0.0
  0
ARC
  5
159
330
1F
100
AcDbEntity
  8
0
  6
Continuous
 62
     7
370
    15
100
AcDbCircle
 10
174.3084805697
 20
156.5658515252
 30
0.0
 40
0.1600002592574299
100
AcDbArc
 50
270.0
 51
331.4391254062
  0
LINE
  5
15A
330
1F
100
AcDbEntity
  8
0
  6
Continuous
 62
     7
370
    15
100
AcDbLine
 10
173.1833455697
 20
156.405851266
 30
0.0
 11
174.3084805697
 21
156.405851266
 31
0.0
  0
ARC
  5
15B
330
1F
100
AcDbEntity
  8
0
  6
Continuous
 62
     7
370
    15
100
AcDbCircle
 10
173.1833455697
 20
156.5658514216
 30
0.0
 40
0.1600001556264374
100
AcDbArc
 50
191.9030251223
 51
270.0
  0
LINE
  5
15C
330
1F
100
AcDbEntity
  8
0
  6
Continuous
 62
     7
370
    15
100
AcDbLine
 10
172.3492552932
 20
159.7471028519
 30
0.0
 11
173.026785722
 21
156.5328504537
 31
0.0
  0
ARC
  5
15D
330
1F
100
AcDbEntity
  8
0
  6
Continuous
 62
     7
370
    15
100
AcDbCircle
 10
172.153555722
 20
159.7058514537
 30
0.0
 40
0.2000000000000505
100
AcDbArc
 50
11.903092
 51
168.096908
  0
LINE
  5
15E
330
1F
100
AcDbEntity
  8
0
  6
Continuous
 62
     7
370
    15
100
AcDbLine
 10
184.3463318417
 20
146.3081254986
 30
0.0
 11
187.3567865361
 21
146.0452815601
 31
0.0
  0
ARC
  5
15F
330
1F
100
AcDbEntity
  8
0
  6
Continuous
 62
     7
370
    15
100
AcDbCircle
 10
184.3985195361
 20
146.9058515601
 30
0.0
 40
0.5999999999999767
100
AcDbArc
 50
95.017772
 51
265.010137
  0
LINE
  5
160
330
1F
100
AcDbEntity
  8
0
  6
Continuous
 62
     7
370
    15
100
AcDbLine
 10
187.3278215361
 20
147.7653555601
 30
0.0
 11
184.3460406932
 21
147.5035521298
 31
0.0
  0
LINE
  5
161
330
1F
100
AcDbEntity
  8
0
  6
Continuous
 62
     7
370
    15
100
AcDbLine
 10
189.6535520231
 20
55.4058526012
 30
0.0
 11
193.1535520231
 21
55.4058526012
 31
0.0
  0
ARC
  5
162
330
1F
100
AcDbEntity
  8
0
  6
Continuous
 62
     7
370
    15
100
AcDbCircle
 10
174.4935555
 20
158.9058515631
 30
0.0
 40
0.1599998201029616
100
AcDbArc
 50
331.438915
 51
28.5610457984
  0
ARC
  5
163
330
1F
100
AcDbEntity
  8
0
  6
Continuous
 62
     7
370
    15
100
AcDbCircle
 10
187.2595326412
 20
150.5471764332
 30
0.0
 40
0.4999999366709986
100
AcDbArc
 50
0.6160562121
 51
85.010107414
  0
LINE
  5
164
330
1F
100
AcDbEntity
  8
0
  6
Continuous
 62
     7
370
    15
100
AcDbLine
 10
184.2925679438
 20
151.3081253374
 30
0.0
 11
187.3030226382
 21
151.0452813989
 31
0.0
  0
ARC
  5
165
330
1F
100
AcDbEntity
  8
0
  6
Continuous
 62
     7
370
    15
100
AcDbCircle
 10
184.3447556382
 20
151.9058513989
 30
0.0
 40
0.6000000000000025
100
AcDbArc
 50
95.017772
 51
265.010137
  0
ARC
  5
166
330
1F
100
AcDbEntity
  8
0
  6
Continuous
 62
     7
370
    15
100
AcDbCircle
 10
174.493555342
 20
157.9058516492
 30
0.0
 40
0.1599996402058831
100
AcDbArc
 50
331.4389542016
 51
28.5610457984
  0
LINE
  5
167
330
1F
100
AcDbEntity
  8
0
  6
Continuous
 62
     7
370
    15
100
AcDbLine
 10
174.403555342
 20
157.4058516492
 30
0.0
 11
174.634084342
 21
157.8293566492
 31
0.0
  0
LINE
  5
168
330
1F
100
AcDbEntity
  8
0
  6
Continuous
 62
     7
370
    15
100
AcDbLine
 10
187.7595036756
 20
150.5525524336
 30
0.0
 11
187.7840606756
 21
148.2688154336
 31
0.0
  0
ARC
  5
169
330
1F
100
AcDbEntity
  8
0
  6
Continuous
 62
     7
370
    15
100
AcDbCircle
 10
187.2019127764
 20
155.9058512288
 30
0.0
 40
0.49999995110847
100
AcDbArc
 50
0.6160562121
 51
90.0
  0
LINE
  5
16A
330
1F
100
AcDbEntity
  8
0
  6
Continuous
 62
     7
370
    15
100
AcDbLine
 10
180.9986297764
 20
156.4058511799
 30
0.0
 11
187.2019127764
 21
156.4058511799
 31
0.0
  0
ARC
  5
16B
330
1F
100
AcDbEntity
  8
0
  6
Continuous
 62
     7
370
    15
100
AcDbCircle
 10
180.9986297764
 20
156.5658514392
 30
0.0
 40
0.1600002592574299
100
AcDbArc
 50
208.5608745938
 51
270.0
  0
LINE
  5
16C
330
1F
100
AcDbEntity
  8
0
  6
Continuous
 62
     7
370
    15
100
AcDbLine
 10
180.6730257404
 20
156.829356295
 30
0.0
 11
180.8581000041
 21
156.4893565631
 31
0.0
  0
ARC
  5
16D
330
1F
100
AcDbEntity
  8
0
  6
Continuous
 62
     7
370
    15
100
AcDbCircle
 10
180.8135550041
 20
156.9058515631
 30
0.0
 40
0.1600000000000289
100
AcDbArc
 50
151.438915
 51
208.561085
  0
LINE
  5
16E
330
1F
100
AcDbEntity
  8
0
  6
Continuous
 62
     7
370
    15
100
AcDbLine
 10
180.9035550041
 20
157.4058515631
 30
0.0
 11
180.6730257404
 21
156.9823468313
 31
0.0
  0
LINE
  5
16F
330
1F
100
AcDbEntity
  8
0
  6
Continuous
 62
     7
370
    15
100
AcDbLine
 10
180.6730257404
 20
157.829356295
 30
0.0
 11
180.9035550041
 21
157.4058515631
 31
0.0
  0
ARC
  5
170
330
1F
100
AcDbEntity
  8
0
  6
Continuous
 62
     7
370
    15
100
AcDbCircle
 10
180.8135550041
 20
157.9058515631
 30
0.0
 40
0.1600000000000039
100
AcDbArc
 50
151.438915
 51
208.561085
  0
LINE
  5
171
330
1F
100
AcDbEntity
  8
0
  6
Continuous
 62
     7
370
    15
100
AcDbLine
 10
180.9035550041
 20
158.4058515631
 30
0.0
 11
180.6730257404
 21
157.9823468313
 31
0.0
  0
LINE
  5
172
330
1F
100
AcDbEntity
  8
0
  6
Continuous
 62
     7
370
    15
100
AcDbLine
 10
180.6730260041
 20
158.8293565631
 30
0.0
 11
180.9035550041
 21
158.4058515631
 31
0.0
  0
LINE
  5
173
330
1F
100
AcDbEntity
  8
0
  6
Continuous
 62
     7
370
    15
100
AcDbLine
 10
187.2740586382
 20
152.7653553989
 30
0.0
 11
184.2922767953
 21
152.5035519686
 31
0.0
  0
ARC
  5
174
330
1F
100
AcDbEntity
  8
0
  6
Continuous
 62
     7
370
    15
100
AcDbCircle
 10
187.2303256532
 20
153.2634392275
 30
0.0
 40
0.5000000742809536
100
AcDbArc
 50
275.017842099
 51
0.6160562121
  0
LINE
  5
175
330
1F
100
AcDbEntity
  8
0
  6
Continuous
 62
     7
370
    15
100
AcDbLine
 10
174.634084342
 20
156.9823466492
 30
0.0
 11
174.403555342
 21
157.4058516492
 31
0.0
  0
ARC
  5
176
330
1F
100
AcDbEntity
  8
0
  6
Continuous
 62
     7
370
    15
100
AcDbCircle
 10
180.8135554781
 20
159.9058516492
 30
0.0
 40
0.1599998201028731
100
AcDbArc
 50
180.0
 51
208.5610457984
  0
LINE
  5
177
330
1F
100
AcDbEntity
  8
0
  6
Continuous
 62
     7
370
    15
100
AcDbLine
 10
180.653555658
 20
160.4058516492
 30
0.0
 11
180.653555658
 21
159.9058516492
 31
0.0
  0
LINE
  5
178
330
1F
100
AcDbEntity
  8
0
  6
Continuous
 62
     7
370
    15
100
AcDbLine
 10
174.653555658
 20
160.4058516492
 30
0.0
 11
180.653555658
 21
160.4058516492
 31
0.0
  0
LINE
  5
179
330
1F
100
AcDbEntity
  8
0
  6
Continuous
 62
     7
370
    15
100
AcDbLine
 10
174.653555658
 20
159.9058516492
 30
0.0
 11
174.653555658
 21
160.4058516492
 31
0.0
  0
ARC
  5
17A
330
1F
100
AcDbEntity
  8
0
  6
Continuous
 62
     7
370
    15
100
AcDbCircle
 10
187.5283505758
 20
125.5471767023
 30
0.0
 40
0.499999893181502
100
AcDbArc
 50
0.6160562121
 51
85.0102215713
  0
LINE
  5
17B
330
1F
100
AcDbEntity
  8
0
  6
Continuous
 62
     7
370
    15
100
AcDbLine
 10
184.5613858822
 20
126.3081256498
 30
0.0
 11
187.5718395765
 21
126.0452817113
 31
0.0
  0
ARC
  5
17C
330
1F
100
AcDbEntity
  8
0
  6
Continuous
 62
     7
370
    15
100
AcDbCircle
 10
184.6135735765
 20
126.9058517113
 30
0.0
 40
0.5999999999999891
100
AcDbArc
 50
95.017772
 51
265.010137
  0
LINE
  5
17D
330
1F
100
AcDbEntity
  8
0
  6
Continuous
 62
     7
370
    15
100
AcDbLine
 10
187.5428755765
 20
127.7653557113
 30
0.0
 11
184.5610947337
 21
127.503552281
 31
0.0
  0
ARC
  5
17E
330
1F
100
AcDbEntity
  8
0
  6
Continuous
 62
     7
370
    15
100
AcDbCircle
 10
187.4991425479
 20
128.263440038
 30
0.0
 40
0.5000005742520858
100
AcDbArc
 50
275.017842099
 51
0.61605498
  0
LINE
  5
17F
330
1F
100
AcDbEntity
  8
0
  6
Continuous
 62
     7
370
    15
100
AcDbLine
 10
187.97455722
 20
130.5525530344
 30
0.0
 11
187.99911422
 21
128.2688160344
 31
0.0
  0
ARC
  5
180
330
1F
100
AcDbEntity
  8
0
  6
Continuous
 62
     7
370
    15
100
AcDbCircle
 10
187.4745861855
 20
130.5471770341
 30
0.0
 40
0.4999999366710034
100
AcDbArc
 50
0.6160562121
 51
85.010107414
  0
LINE
  5
181
330
1F
100
AcDbEntity
  8
0
  6
Continuous
 62
     7
370
    15
100
AcDbLine
 10
184.5076214882
 20
131.3081259383
 30
0.0
 11
187.5180761825
 21
131.0452819997
 31
0.0
  0
ARC
  5
182
330
1F
100
AcDbEntity
  8
0
  6
Continuous
 62
     7
370
    15
100
AcDbCircle
 10
184.5598091825
 20
131.9058519997
 30
0.0
 40
0.5999999999999774
100
AcDbArc
 50
95.017772
 51
265.010137
  0
LINE
  5
183
330
1F
100
AcDbEntity
  8
0
  6
Continuous
 62
     7
370
    15
100
AcDbLine
 10
187.4891111825
 20
132.7653559997
 30
0.0
 11
184.5073303396
 21
132.5035525695
 31
0.0
  0
ARC
  5
184
330
1F
100
AcDbEntity
  8
0
  6
Continuous
 62
     7
370
    15
100
AcDbCircle
 10
187.4453791938
 20
133.2634398719
 30
0.0
 40
0.5000000305484994
100
AcDbArc
 50
275.0177279467
 51
0.6160562121
  0
LINE
  5
185
330
1F
100
AcDbEntity
  8
0
  6
Continuous
 62
     7
370
    15
100
AcDbLine
 10
187.9207943221
 20
135.5525528733
 30
0.0
 11
187.9453503221
 21
133.2688158733
 31
0.0
  0
ARC
  5
186
330
1F
100
AcDbEntity
  8
0
  6
Continuous
 62
     7
370
    15
100
AcDbCircle
 10
187.4208233311
 20
135.5471768734
 30
0.0
 40
0.4999998931815072
100
AcDbArc
 50
0.6160562121
 51
85.0102215713
  0
LINE
  5
187
330
1F
100
AcDbEntity
  8
0
  6
Continuous
 62
     7
370
    15
100
AcDbLine
 10
184.4538586375
 20
136.3081258209
 30
0.0
 11
187.4643123319
 21
136.0452818824
 31
0.0
  0
ARC
  5
188
330
1F
100
AcDbEntity
  8
0
  6
Continuous
 62
     7
370
    15
100
AcDbCircle
 10
184.5060463319
 20
136.9058518824
 30
0.0
 40
0.5999999999999791
100
AcDbArc
 50
95.017772
 51
265.010137
  0
LINE
  5
189
330
1F
100
AcDbEntity
  8
0
  6
Continuous
 62
     7
370
    15
100
AcDbLine
 10
187.4353483319
 20
137.7653558824
 30
0.0
 11
184.453567489
 21
137.5035524521
 31
0.0
  0
ARC
  5
18A
330
1F
100
AcDbEntity
  8
0
  6
Continuous
 62
     7
370
    15
100
AcDbCircle
 10
187.3916163431
 20
138.2634397545
 30
0.0
 40
0.5000000305484567
100
AcDbArc
 50
275.0177279467
 51
0.6160562121
  0
LINE
  5
18B
330
1F
100
AcDbEntity
  8
0
  6
Continuous
 62
     7
370
    15
100
AcDbLine
 10
187.8670304714
 20
140.5525527559
 30
0.0
 11
187.8915874714
 21
138.2688157559
 31
0.0
  0
ARC
  5
18C
330
1F
100
AcDbEntity
  8
0
  6
Continuous
 62
     7
370
    15
100
AcDbCircle
 10
187.367059437
 20
140.5471767555
 30
0.0
 40
0.4999999366709776
100
AcDbArc
 50
0.6160562121
 51
85.010107414
  0
LINE
  5
18D
330
1F
100
AcDbEntity
  8
0
  6
Continuous
 62
     7
370
    15
100
AcDbLine
 10
184.4000947396
 20
141.3081256598
 30
0.0
 11
187.410549434
 21
141.0452817212
 31
0.0
  0
ARC
  5
18E
330
1F
100
AcDbEntity
  8
0
  6
Continuous
 62
     7
370
    15
100
AcDbCircle
 10
184.452282434
 20
141.9058517212
 30
0.0
 40
0.5999999999999774
100
AcDbArc
 50
95.017772
 51
265.010137
  0
LINE
  5
18F
330
1F
100
AcDbEntity
  8
0
  6
Continuous
 62
     7
370
    15
100
AcDbLine
 10
187.381584434
 20
142.7653557212
 30
0.0
 11
184.3998035911
 21
142.5035522909
 31
0.0
  0
ARC
  5
190
330
1F
100
AcDbEntity
  8
0
  6
Continuous
 62
     7
370
    15
100
AcDbCircle
 10
187.3378524452
 20
143.2634395934
 30
0.0
 40
0.500000030548471
100
AcDbArc
 50
275.0177279467
 51
0.6160562121
  0
LINE
  5
191
330
1F
100
AcDbEntity
  8
0
  6
Continuous
 62
     7
370
    15
100
AcDbLine
 10
187.8132675735
 20
145.5525525948
 30
0.0
 11
187.8378235735
 21
143.2688155948
 31
0.0
  0
ARC
  5
192
330
1F
100
AcDbEntity
  8
0
  6
Continuous
 62
     7
370
    15
100
AcDbCircle
 10
187.3132965391
 20
145.5471765944
 30
0.0
 40
0.4999999366709986
100
AcDbArc
 50
0.6160562121
 51
85.010107414
  0
ARC
  5
193
330
1F
100
AcDbEntity
  8
0
  6
Continuous
 62
     7
370
    15
100
AcDbCircle
 10
152.4935572332
 20
156.9058516492
 30
0.0
 40
0.1599996402058831
100
AcDbArc
 50
331.4389542016
 51
28.5610457984
  0
LINE
  5
194
330
1F
100
AcDbEntity
  8
0
  6
Continuous
 62
     7
370
    15
100
AcDbLine
 10
152.4490122332
 20
156.4893566492
 30
0.0
 11
152.6340862332
 21
156.8293566492
 31
0.0
  0
ARC
  5
195
330
1F
100
AcDbEntity
  8
0
  6
Continuous
 62
     7
370
    15
100
AcDbCircle
 10
152.3084824609
 20
156.5658515252
 30
0.0
 40
0.1600002592574093
100
AcDbArc
 50
270.0
 51
331.4391254062
  0
LINE
  5
196
330
1F
100
AcDbEntity
  8
0
  6
Continuous
 62
     7
370
    15
100
AcDbLine
 10
151.1833474609
 20
156.405851266
 30
0.0
 11
152.3084824609
 21
156.405851266
 31
0.0
  0
ARC
  5
197
330
1F
100
AcDbEntity
  8
0
  6
Continuous
 62
     7
370
    15
100
AcDbCircle
 10
151.1833474609
 20
156.5658514216
 30
0.0
 40
0.1600001556264711
100
AcDbArc
 50
191.9030251224
 51
270.0
  0
LINE
  5
198
330
1F
100
AcDbEntity
  8
0
  6
Continuous
 62
     7
370
    15
100
AcDbLine
 10
150.3492571844
 20
159.7471028519
 30
0.0
 11
151.0267876132
 21
156.5328504537
 31
0.0
  0
ARC
  5
199
330
1F
100
AcDbEntity
  8
0
  6
Continuous
 62
     7
370
    15
100
AcDbCircle
 10
150.1535576132
 20
159.7058514537
 30
0.0
 40
0.2000000000000505
100
AcDbArc
 50
11.903092
 51
168.096908
  0
ARC
  5
19A
330
1F
100
AcDbEntity
  8
0
  6
Continuous
 62
     7
370
    15
100
AcDbCircle
 10
188.6535520231
 20
56.4058526012
 30
0.0
 40
0.5
100
AcDbArc
 50
0.0
 51
90.0
  0
LINE
  5
19B
330
1F
100
AcDbEntity
  8
0
  6
Continuous
 62
     7
370
    15
100
AcDbLine
 10
182.7535520231
 20
56.9058526012
 30
0.0
 11
188.6535520231
 21
56.9058526012
 31
0.0
  0
ARC
  5
19C
330
1F
100
AcDbEntity
  8
0
  6
Continuous
 62
     7
370
    15
100
AcDbCircle
 10
182.7535520231
 20
57.4058526012
 30
0.0
 40
0.5
100
AcDbArc
 50
180.0
 51
270.0
  0
LINE
  5
19D
330
1F
100
AcDbEntity
  8
0
  6
Continuous
 62
     7
370
    15
100
AcDbLine
 10
182.2535520231
 20
63.4058526012
 30
0.0
 11
182.2535520231
 21
57.4058526012
 31
0.0
  0
ARC
  5
19E
330
1F
100
AcDbEntity
  8
0
  6
Continuous
 62
     7
370
    15
100
AcDbCircle
 10
186.2535520231
 20
63.4058526012
 30
0.0
 40
4.0
100
AcDbArc
 50
90.0
 51
180.0
  0
LINE
  5
19F
330
1F
100
AcDbEntity
  8
0
  6
Continuous
 62
     7
370
    15
100
AcDbLine
 10
188.1481470231
 20
67.4058526012
 30
0.0
 11
186.2535520231
 21
67.4058526012
 31
0.0
  0
ARC
  5
1A0
330
1F
100
AcDbEntity
  8
0
  6
Continuous
 62
     7
370
    15
100
AcDbCircle
 10
188.1481470231
 20
67.9058525523
 30
0.0
 40
0.4999999511084923
100
AcDbArc
 50
270.0
 51
0.6160562121
  0
LINE
  5
1A1
330
1F
100
AcDbEntity
  8
0
  6
Continuous
 62
     7
370
    15
100
AcDbLine
 10
188.619717072
 20
70.5525535528
 30
0.0
 11
188.648118072
 21
67.9112285528
 31
0.0
  0
ARC
  5
1A2
330
1F
100
AcDbEntity
  8
0
  6
Continuous
 62
     7
370
    15
100
AcDbCircle
 10
188.1197455375
 20
70.5471775578
 30
0.0
 40
0.5000004366421313
100
AcDbArc
 50
0.61605498
 51
85.010107414
  0
LINE
  5
1A3
330
1F
100
AcDbEntity
  8
0
  6
Continuous
 62
     7
370
    15
100
AcDbLine
 10
185.1527808836
 20
71.3081269601
 30
0.0
 11
188.163235578
 21
71.0452830215
 31
0.0
  0
ARC
  5
1A4
330
1F
100
AcDbEntity
  8
0
  6
Continuous
 62
     7
370
    15
100
AcDbCircle
 10
185.204968578
 20
71.9058530215
 30
0.0
 40
0.5999999999999817
100
AcDbArc
 50
95.017772
 51
265.010137
  0
LINE
  5
1A5
330
1F
100
AcDbEntity
  8
0
  6
Continuous
 62
     7
370
    15
100
AcDbLine
 10
188.134271578
 20
72.7653570215
 30
0.0
 11
185.1524897351
 21
72.5035535913
 31
0.0
  0
ARC
  5
1A6
330
1F
100
AcDbEntity
  8
0
  6
Continuous
 62
     7
370
    15
100
AcDbCircle
 10
188.090538593
 20
73.2634408501
 30
0.0
 40
0.5000000742809882
100
AcDbArc
 50
275.017842099
 51
0.6160562121
  0
ARC
  5
1A7
330
1F
100
AcDbEntity
  8
0
  6
Continuous
 62
     7
370
    15
100
AcDbCircle
 10
180.8135551621
 20
158.9058516492
 30
0.0
 40
0.1599998201029116
100
AcDbArc
 50
151.438915
 51
208.5610457984
  0
LINE
  5
1A8
330
1F
100
AcDbEntity
  8
0
  6
Continuous
 62
     7
370
    15
100
AcDbLine
 10
180.9035553201
 20
159.4058515631
 30
0.0
 11
180.6730260565
 21
158.9823468313
 31
0.0
  0
LINE
  5
1A9
330
1F
100
AcDbEntity
  8
0
  6
Continuous
 62
     7
370
    15
100
AcDbLine
 10
180.6730263201
 20
159.8293565631
 30
0.0
 11
180.9035553201
 21
159.4058515631
 31
0.0
  0
ARC
  5
1AA
330
1F
100
AcDbEntity
  8
0
  6
Continuous
 62
     7
370
    15
100
AcDbCircle
 10
185.1512057276
 20
76.9058528173
 30
0.0
 40
0.599999999999975
100
AcDbArc
 50
95.017772
 51
265.010137
  0
LINE
  5
1AB
330
1F
100
AcDbEntity
  8
0
  6
Continuous
 62
     7
370
    15
100
AcDbLine
 10
188.0805077276
 20
77.7653568173
 30
0.0
 11
185.0987268848
 21
77.503553387
 31
0.0
  0
ARC
  5
1AC
330
1F
100
AcDbEntity
  8
0
  6
Continuous
 62
     7
370
    15
100
AcDbCircle
 10
188.0367757389
 20
78.2634406895
 30
0.0
 40
0.5000000305484992
100
AcDbArc
 50
275.0177279467
 51
0.6160562121
  0
LINE
  5
1AD
330
1F
100
AcDbEntity
  8
0
  6
Continuous
 62
     7
370
    15
100
AcDbLine
 10
188.5121908672
 20
80.5525536908
 30
0.0
 11
188.5367468672
 21
78.2688166908
 31
0.0
  0
ARC
  5
1AE
330
1F
100
AcDbEntity
  8
0
  6
Continuous
 62
     7
370
    15
100
AcDbCircle
 10
188.0122198762
 20
80.5471776909
 30
0.0
 40
0.4999998931814977
100
AcDbArc
 50
0.6160562121
 51
85.0102215713
  0
LINE
  5
1AF
330
1F
100
AcDbEntity
  8
0
  6
Continuous
 62
     7
370
    15
100
AcDbLine
 10
185.0452541827
 20
81.3081266385
 30
0.0
 11
188.055708877
 21
81.0452826999
 31
0.0
  0
ARC
  5
1B0
330
1F
100
AcDbEntity
  8
0
  6
Continuous
 62
     7
370
    15
100
AcDbCircle
 10
185.097441877
 20
81.9058526999
 30
0.0
 40
0.5999999999999774
100
AcDbArc
 50
95.017772
 51
265.010137
  0
LINE
  5
1B1
330
1F
100
AcDbEntity
  8
0
  6
Continuous
 62
     7
370
    15
100
AcDbLine
 10
188.026744877
 20
82.7653566999
 30
0.0
 11
185.0449630341
 21
82.5035532697
 31
0.0
  0
ARC
  5
1B2
330
1F
100
AcDbEntity
  8
0
  6
Continuous
 62
     7
370
    15
100
AcDbCircle
 10
187.9830118921
 20
83.2634405285
 30
0.0
 40
0.5000000742809882
100
AcDbArc
 50
275.017842099
 51
0.6160562121
  0
LINE
  5
1B3
330
1F
100
AcDbEntity
  8
0
  6
Continuous
 62
     7
370
    15
100
AcDbLine
 10
188.4584270641
 20
85.5525535304
 30
0.0
 11
188.4829830641
 21
83.2688165304
 31
0.0
  0
ARC
  5
1B4
330
1F
100
AcDbEntity
  8
0
  6
Continuous
 62
     7
370
    15
100
AcDbCircle
 10
187.9584560297
 20
85.54717753
 30
0.0
 40
0.499999936671025
100
AcDbArc
 50
0.6160562121
 51
85.010107414
  0
LINE
  5
1B5
330
1F
100
AcDbEntity
  8
0
  6
Continuous
 62
     7
370
    15
100
AcDbLine
 10
184.9914913323
 20
86.3081264342
 30
0.0
 11
188.0019460267
 21
86.0452824957
 31
0.0
  0
ARC
  5
1B6
330
1F
100
AcDbEntity
  8
0
  6
Continuous
 62
     7
370
    15
100
AcDbCircle
 10
185.0436790267
 20
86.9058524957
 30
0.0
 40
0.5999999999999933
100
AcDbArc
 50
95.017772
 51
265.010137
  0
LINE
  5
1B7
330
1F
100
AcDbEntity
  8
0
  6
Continuous
 62
     7
370
    15
100
AcDbLine
 10
187.9729810267
 20
87.7653564957
 30
0.0
 11
184.9912001838
 21
87.5035530654
 31
0.0
  0
ARC
  5
1B8
330
1F
100
AcDbEntity
  8
0
  6
Continuous
 62
     7
370
    15
100
AcDbCircle
 10
187.9292490379
 20
88.2634403679
 30
0.0
 40
0.5000000305484874
100
AcDbArc
 50
275.0177279467
 51
0.6160562121
  0
LINE
  5
1B9
330
1F
100
AcDbEntity
  8
0
  6
Continuous
 62
     7
370
    15
100
AcDbLine
 10
188.4046641662
 20
90.5525533692
 30
0.0
 11
188.4292201662
 21
88.2688163692
 31
0.0
  0
ARC
  5
1BA
330
1F
100
AcDbEntity
  8
0
  6
Continuous
 62
     7
370
    15
100
AcDbCircle
 10
187.9046931753
 20
90.5471773693
 30
0.0
 40
0.4999998931815119
100
AcDbArc
 50
0.6160562121
 51
85.0102215713
  0
LINE
  5
1BB
330
1F
100
AcDbEntity
  8
0
  6
Continuous
 62
     7
370
    15
100
AcDbLine
 10
184.9377284817
 20
91.3081263169
 30
0.0
 11
187.948182176
 21
91.0452823783
 31
0.0
  0
ARC
  5
1BC
330
1F
100
AcDbEntity
  8
0
  6
Continuous
 62
     7
370
    15
100
AcDbCircle
 10
184.989916176
 20
91.9058523783
 30
0.0
 40
0.5999999999999933
100
AcDbArc
 50
95.017772
 51
265.010137
  0
LINE
  5
1BD
330
1F
100
AcDbEntity
  8
0
  6
Continuous
 62
     7
370
    15
100
AcDbLine
 10
187.919218176
 20
92.7653563783
 30
0.0
 11
184.9374373332
 21
92.5035529481
 31
0.0
  0
ARC
  5
1BE
330
1F
100
AcDbEntity
  8
0
  6
Continuous
 62
     7
370
    15
100
AcDbCircle
 10
187.8754861873
 20
93.2634402505
 30
0.0
 40
0.5000000305484992
100
AcDbArc
 50
275.0177279467
 51
0.6160562121
  0
LINE
  5
1BF
330
1F
100
AcDbEntity
  8
0
  6
Continuous
 62
     7
370
    15
100
AcDbLine
 10
188.3509003156
 20
95.5525532519
 30
0.0
 11
188.3754573156
 21
93.2688162519
 31
0.0
  0
ARC
  5
1C0
330
1F
100
AcDbEntity
  8
0
  6
Continuous
 62
     7
370
    15
100
AcDbCircle
 10
187.8509292811
 20
95.5471772515
 30
0.0
 40
0.4999999366710274
100
AcDbArc
 50
0.6160562121
 51
85.010107414
  0
LINE
  5
1C1
330
1F
100
AcDbEntity
  8
0
  6
Continuous
 62
     7
370
    15
100
AcDbLine
 10
184.8839645838
 20
96.3081261557
 30
0.0
 11
187.8944192781
 21
96.0452822172
 31
0.0
  0
ARC
  5
1C2
330
1F
100
AcDbEntity
  8
0
  6
Continuous
 62
     7
370
    15
100
AcDbCircle
 10
184.9361522781
 20
96.9058522172
 30
0.0
 40
0.5999999999999774
100
AcDbArc
 50
95.017772
 51
265.010137
  0
LINE
  5
1C3
330
1F
100
AcDbEntity
  8
0
  6
Continuous
 62
     7
370
    15
100
AcDbLine
 10
187.8654542781
 20
97.7653562172
 30
0.0
 11
184.8836734353
 21
97.5035527869
 31
0.0
  0
ARC
  5
1C4
330
1F
100
AcDbEntity
  8
0
  6
Continuous
 62
     7
370
    15
100
AcDbCircle
 10
187.8217222894
 20
98.2634400893
 30
0.0
 40
0.5000000305484711
100
AcDbArc
 50
275.0177279467
 51
0.6160562121
  0
LINE
  5
1C5
330
1F
100
AcDbEntity
  8
0
  6
Continuous
 62
     7
370
    15
100
AcDbLine
 10
188.2971374177
 20
100.5525530907
 30
0.0
 11
188.3216934177
 21
98.2688160907
 31
0.0
  0
ARC
  5
1C6
330
1F
100
AcDbEntity
  8
0
  6
Continuous
 62
     7
370
    15
100
AcDbCircle
 10
187.7971663832
 20
100.5471770903
 30
0.0
 40
0.4999999366710083
100
AcDbArc
 50
0.6160562121
 51
85.010107414
  0
LINE
  5
1C7
330
1F
100
AcDbEntity
  8
0
  6
Continuous
 62
     7
370
    15
100
AcDbLine
 10
184.8302016859
 20
101.3081259946
 30
0.0
 11
187.8406563802
 21
101.045282056
 31
0.0
  0
ARC
  5
1C8
330
1F
100
AcDbEntity
  8
0
  6
Continuous
 62
     7
370
    15
100
AcDbCircle
 10
184.8823893802
 20
101.905852056
 30
0.0
 40
0.5999999999999774
100
AcDbArc
 50
95.017772
 51
265.010137
  0
LINE
  5
1C9
330
1F
100
AcDbEntity
  8
0
  6
Continuous
 62
     7
370
    15
100
AcDbLine
 10
187.8116913802
 20
102.765356056
 30
0.0
 11
184.8299105374
 21
102.5035526257
 31
0.0
  0
ARC
  5
1CA
330
1F
100
AcDbEntity
  8
0
  6
Continuous
 62
     7
370
    15
100
AcDbCircle
 10
187.7679593915
 20
103.2634399282
 30
0.0
 40
0.5000000305484995
100
AcDbArc
 50
275.0177279467
 51
0.6160562121
  0
LINE
  5
1CB
330
1F
100
AcDbEntity
  8
0
  6
Continuous
 62
     7
370
    15
100
AcDbLine
 10
188.2433735198
 20
105.5525529296
 30
0.0
 11
188.2679305198
 21
103.2688159296
 31
0.0
  0
ARC
  5
1CC
330
1F
100
AcDbEntity
  8
0
  6
Continuous
 62
     7
370
    15
100
AcDbCircle
 10
187.7434024853
 20
105.5471769292
 30
0.0
 40
0.4999999366710108
100
AcDbArc
 50
0.6160562121
 51
85.010107414
  0
LINE
  5
1CD
330
1F
100
AcDbEntity
  8
0
  6
Continuous
 62
     7
370
    15
100
AcDbLine
 10
184.776437788
 20
106.3081258334
 30
0.0
 11
187.7868924823
 21
106.0452818949
 31
0.0
  0
ARC
  5
1CE
330
1F
100
AcDbEntity
  8
0
  6
Continuous
 62
     7
370
    15
100
AcDbCircle
 10
184.8286254823
 20
106.9058518949
 30
0.0
 40
0.5999999999999791
100
AcDbArc
 50
95.017772
 51
265.010137
  0
LINE
  5
1CF
330
1F
100
AcDbEntity
  8
0
  6
Continuous
 62
     7
370
    15
100
AcDbLine
 10
187.7579284823
 20
107.7653558949
 30
0.0
 11
184.7761466395
 21
107.5035524646
 31
0.0
  0
ARC
  5
1D0
330
1F
100
AcDbEntity
  8
0
  6
Continuous
 62
     7
370
    15
100
AcDbCircle
 10
187.7141954974
 20
108.2634397235
 30
0.0
 40
0.5000000742809907
100
AcDbArc
 50
275.017842099
 51
0.6160562121
  0
LINE
  5
1D1
330
1F
100
AcDbEntity
  8
0
  6
Continuous
 62
     7
370
    15
100
AcDbLine
 10
188.1896106694
 20
110.5525527253
 30
0.0
 11
188.2141666694
 21
108.2688157253
 31
0.0
  0
ARC
  5
1D2
330
1F
100
AcDbEntity
  8
0
  6
Continuous
 62
     7
370
    15
100
AcDbCircle
 10
187.689639635
 20
110.5471767249
 30
0.0
 40
0.4999999366709751
100
AcDbArc
 50
0.6160562121
 51
85.010107414
  0
LINE
  5
1D3
330
1F
100
AcDbEntity
  8
0
  6
Continuous
 62
     7
370
    15
100
AcDbLine
 10
184.7226749376
 20
111.3081256292
 30
0.0
 11
187.733129632
 21
111.0452816906
 31
0.0
  0
ARC
  5
1D4
330
1F
100
AcDbEntity
  8
0
  6
Continuous
 62
     7
370
    15
100
AcDbCircle
 10
184.774862632
 20
111.9058516906
 30
0.0
 40
0.5999999999999774
100
AcDbArc
 50
95.017772
 51
265.010137
  0
LINE
  5
1D5
330
1F
100
AcDbEntity
  8
0
  6
Continuous
 62
     7
370
    15
100
AcDbLine
 10
187.704164632
 20
112.7653556906
 30
0.0
 11
184.7223837891
 21
112.5035522603
 31
0.0
  0
ARC
  5
1D6
330
1F
100
AcDbEntity
  8
0
  6
Continuous
 62
     7
370
    15
100
AcDbCircle
 10
187.6604326432
 20
113.2634395628
 30
0.0
 40
0.5000000305484992
100
AcDbArc
 50
275.0177279467
 51
0.6160562121
  0
LINE
  5
1D7
330
1F
100
AcDbEntity
  8
0
  6
Continuous
 62
     7
370
    15
100
AcDbLine
 10
188.1358477715
 20
115.5525525642
 30
0.0
 11
188.1604037715
 21
113.2688155642
 31
0.0
  0
ARC
  5
1D8
330
1F
100
AcDbEntity
  8
0
  6
Continuous
 62
     7
370
    15
100
AcDbCircle
 10
187.635876237
 20
115.5471765692
 30
0.0
 40
0.5000004366420578
100
AcDbArc
 50
0.61605498
 51
85.010107414
  0
LINE
  5
1D9
330
1F
100
AcDbEntity
  8
0
  6
Continuous
 62
     7
370
    15
100
AcDbLine
 10
184.6689115832
 20
116.3081259714
 30
0.0
 11
187.6793662775
 21
116.0452820329
 31
0.0
  0
ARC
  5
1DA
330
1F
100
AcDbEntity
  8
0
  6
Continuous
 62
     7
370
    15
100
AcDbCircle
 10
184.7210992775
 20
116.9058520329
 30
0.0
 40
0.6000000000000058
100
AcDbArc
 50
95.017772
 51
265.010137
  0
LINE
  5
1DB
330
1F
100
AcDbEntity
  8
0
  6
Continuous
 62
     7
370
    15
100
AcDbLine
 10
188.5659537651
 20
75.552553852
 30
0.0
 11
188.5905097651
 21
73.268816852
 31
0.0
  0
ARC
  5
1DC
330
1F
100
AcDbEntity
  8
0
  6
Continuous
 62
     7
370
    15
100
AcDbCircle
 10
188.0659827306
 20
75.5471778516
 30
0.0
 40
0.4999999366710158
100
AcDbArc
 50
0.6160562121
 51
85.010107414
  0
LINE
  5
1DD
330
1F
100
AcDbEntity
  8
0
  6
Continuous
 62
     7
370
    15
100
AcDbLine
 10
185.0990180333
 20
76.3081267558
 30
0.0
 11
188.1094727276
 21
76.0452828173
 31
0.0
  0
LINE
  5
1DE
330
1F
100
AcDbEntity
  8
0
  6
Continuous
 62
     7
370
    15
100
AcDbLine
 10
184.6151487328
 20
121.3081257672
 30
0.0
 11
187.6256034272
 21
121.0452818287
 31
0.0
  0
ARC
  5
1DF
330
1F
100
AcDbEntity
  8
0
  6
Continuous
 62
     7
370
    15
100
AcDbCircle
 10
184.6673364272
 20
121.9058518287
 30
0.0
 40
0.6000000000000058
100
AcDbArc
 50
95.017772
 51
265.010137
  0
LINE
  5
1E0
330
1F
100
AcDbEntity
  8
0
  6
Continuous
 62
     7
370
    15
100
AcDbLine
 10
187.5966384272
 20
122.7653558287
 30
0.0
 11
184.6148575843
 21
122.5035523984
 31
0.0
  0
ARC
  5
1E1
330
1F
100
AcDbEntity
  8
0
  6
Continuous
 62
     7
370
    15
100
AcDbCircle
 10
187.5529064384
 20
123.2634397008
 30
0.0
 40
0.5000000305484992
100
AcDbArc
 50
275.0177279467
 51
0.6160562121
  0
LINE
  5
1E2
330
1F
100
AcDbEntity
  8
0
  6
Continuous
 62
     7
370
    15
100
AcDbLine
 10
188.0283215667
 20
125.5525527022
 30
0.0
 11
188.0528775667
 21
123.2688157022
 31
0.0
  0
ARC
  5
1E3
330
1F
100
AcDbEntity
  8
0
  6
Continuous
 62
     7
370
    15
100
AcDbCircle
 10
125.813559429
 20
156.9058516492
 30
0.0
 40
0.1599996402058456
100
AcDbArc
 50
151.4389542016
 51
208.5610457984
  0
LINE
  5
1E4
330
1F
100
AcDbEntity
  8
0
  6
Continuous
 62
     7
370
    15
100
AcDbLine
 10
125.903559429
 20
157.4058516492
 30
0.0
 11
125.673030429
 21
156.9823466492
 31
0.0
  0
LINE
  5
1E5
330
1F
100
AcDbEntity
  8
0
  6
Continuous
 62
     7
370
    15
100
AcDbLine
 10
125.673030429
 20
157.8293566492
 30
0.0
 11
125.903559429
 21
157.4058516492
 31
0.0
  0
ARC
  5
1E6
330
1F
100
AcDbEntity
  8
0
  6
Continuous
 62
     7
370
    15
100
AcDbCircle
 10
125.813559429
 20
157.9058516492
 30
0.0
 40
0.1599996402058456
100
AcDbArc
 50
151.4389542016
 51
208.5610457984
  0
LINE
  5
1E7
330
1F
100
AcDbEntity
  8
0
  6
Continuous
 62
     7
370
    15
100
AcDbLine
 10
125.903559429
 20
158.4058516492
 30
0.0
 11
125.673030429
 21
157.9823466492
 31
0.0
  0
LINE
  5
1E8
330
1F
100
AcDbEntity
  8
0
  6
Continuous
 62
     7
370
    15
100
AcDbLine
 10
125.6730301653
 20
158.829356381
 30
0.0
 11
125.903559429
 21
158.4058516492
 31
0.0
  0
ARC
  5
1E9
330
1F
100
AcDbEntity
  8
0
  6
Continuous
 62
     7
370
    15
100
AcDbCircle
 10
125.813559271
 20
158.9058515632
 30
0.0
 40
0.1599998201029085
100
AcDbArc
 50
151.4389542016
 51
208.561085
  0
LINE
  5
1EA
330
1F
100
AcDbEntity
  8
0
  6
Continuous
 62
     7
370
    15
100
AcDbLine
 10
125.903559113
 20
159.4058516492
 30
0.0
 11
125.673030113
 21
158.9823466492
 31
0.0
  0
LINE
  5
1EB
330
1F
100
AcDbEntity
  8
0
  6
Continuous
 62
     7
370
    15
100
AcDbLine
 10
125.6730298493
 20
159.829356381
 30
0.0
 11
125.903559113
 21
159.4058516492
 31
0.0
  0
ARC
  5
1EC
330
1F
100
AcDbEntity
  8
0
  6
Continuous
 62
     7
370
    15
100
AcDbCircle
 10
125.813559113
 20
159.9058516492
 30
0.0
 40
0.159999999999979
100
AcDbArc
 50
180.0
 51
208.561085
  0
LINE
  5
1ED
330
1F
100
AcDbEntity
  8
0
  6
Continuous
 62
     7
370
    15
100
AcDbLine
 10
125.653559113
 20
160.4058516492
 30
0.0
 11
125.653559113
 21
159.9058516492
 31
0.0
  0
LINE
  5
1EE
330
1F
100
AcDbEntity
  8
0
  6
Continuous
 62
     7
370
    15
100
AcDbLine
 10
119.653559113
 20
160.4058516492
 30
0.0
 11
125.653559113
 21
160.4058516492
 31
0.0
  0
LINE
  5
1EF
330
1F
100
AcDbEntity
  8
0
  6
Continuous
 62
     7
370
    15
100
AcDbLine
 10
119.653559113
 20
159.9058516492
 30
0.0
 11
119.653559113
 21
160.4058516492
 31
0.0
  0
ARC
  5
1F0
330
1F
100
AcDbEntity
  8
0
  6
Continuous
 62
     7
370
    15
100
AcDbCircle
 10
119.4935592929
 20
159.9058516492
 30
0.0
 40
0.1599998201029535
100
AcDbArc
 50
331.4389542016
 51
0.0
  0
LINE
  5
1F1
330
1F
100
AcDbEntity
  8
0
  6
Continuous
 62
     7
370
    15
100
AcDbLine
 10
119.4035594509
 20
159.4058515632
 30
0.0
 11
119.6340884509
 21
159.8293565632
 31
0.0
  0
LINE
  5
1F2
330
1F
100
AcDbEntity
  8
0
  6
Continuous
 62
     7
370
    15
100
AcDbLine
 10
119.6340887145
 20
158.9823468313
 30
0.0
 11
119.4035594509
 21
159.4058515632
 31
0.0
  0
ARC
  5
1F3
330
1F
100
AcDbEntity
  8
0
  6
Continuous
 62
     7
370
    15
100
AcDbCircle
 10
119.4935596089
 20
158.9058516492
 30
0.0
 40
0.1599998201029491
100
AcDbArc
 50
331.4389542016
 51
28.561085
  0
LINE
  5
1F4
330
1F
100
AcDbEntity
  8
0
  6
Continuous
 62
     7
370
    15
100
AcDbLine
 10
119.4035597669
 20
158.4058515632
 30
0.0
 11
119.6340887669
 21
158.8293565632
 31
0.0
  0
LINE
  5
1F5
330
1F
100
AcDbEntity
  8
0
  6
Continuous
 62
     7
370
    15
100
AcDbLine
 10
119.6340890306
 20
157.9823468313
 30
0.0
 11
119.4035597669
 21
158.4058515632
 31
0.0
  0
ARC
  5
1F6
330
1F
100
AcDbEntity
  8
0
  6
Continuous
 62
     7
370
    15
100
AcDbCircle
 10
119.4935597669
 20
157.9058515632
 30
0.0
 40
0.1600000000000175
100
AcDbArc
 50
331.438915
 51
28.561085
  0
LINE
  5
1F7
330
1F
100
AcDbEntity
  8
0
  6
Continuous
 62
     7
370
    15
100
AcDbLine
 10
119.4035597669
 20
157.4058515632
 30
0.0
 11
119.6340890306
 21
157.829356295
 31
0.0
  0
LINE
  5
1F8
330
1F
100
AcDbEntity
  8
0
  6
Continuous
 62
     7
370
    15
100
AcDbLine
 10
119.6340890306
 20
156.9823468313
 30
0.0
 11
119.4035597669
 21
157.4058515632
 31
0.0
  0
ARC
  5
1F9
330
1F
100
AcDbEntity
  8
0
  6
Continuous
 62
     7
370
    15
100
AcDbCircle
 10
119.4935597669
 20
156.9058515632
 30
0.0
 40
0.1600000000000175
100
AcDbArc
 50
331.438915
 51
28.561085
  0
LINE
  5
1FA
330
1F
100
AcDbEntity
  8
0
  6
Continuous
 62
     7
370
    15
100
AcDbLine
 10
119.4490140306
 20
156.489356295
 30
0.0
 11
119.6340890306
 21
156.829356295
 31
0.0
  0
ARC
  5
1FB
330
1F
100
AcDbEntity
  8
0
  6
Continuous
 62
     7
370
    15
100
AcDbCircle
 10
119.3084847669
 20
156.5658515632
 30
0.0
 40
0.160000000000025
100
AcDbArc
 50
270.0
 51
331.438915
  0
LINE
  5
1FC
330
1F
100
AcDbEntity
  8
0
  6
Continuous
 62
     7
370
    15
100
AcDbLine
 10
118.1833497669
 20
156.4058515632
 30
0.0
 11
119.3084847669
 21
156.4058515632
 31
0.0
  0
ARC
  5
1FD
330
1F
100
AcDbEntity
  8
0
  6
Continuous
 62
     7
370
    15
100
AcDbCircle
 10
118.1833497669
 20
156.5658515632
 30
0.0
 40
0.160000000000025
100
AcDbArc
 50
191.903092
 51
270.0
  0
LINE
  5
1FE
330
1F
100
AcDbEntity
  8
0
  6
Continuous
 62
     7
370
    15
100
AcDbLine
 10
117.3492597669
 20
159.7471025632
 30
0.0
 11
118.02679011
 21
156.5328504446
 31
0.0
  0
ARC
  5
1FF
330
1F
100
AcDbEntity
  8
0
  6
Continuous
 62
     7
370
    15
100
AcDbCircle
 10
117.1535597669
 20
159.7058515632
 30
0.0
 40
0.2000003375022209
100
AcDbArc
 50
11.9029550427
 51
168.0970449573
  0
ARC
  5
200
330
1F
100
AcDbEntity
  8
0
  6
Continuous
 62
     7
370
    15
100
AcDbCircle
 10
187.2840895473
 20
148.2634394322
 30
0.0
 40
0.500000030548471
100
AcDbArc
 50
275.0177279467
 51
0.6160562121
  0
ARC
  5
201
330
1F
100
AcDbEntity
  8
0
  6
Continuous
 62
     7
370
    15
100
AcDbCircle
 10
116.1237697669
 20
156.5658515632
 30
0.0
 40
0.1600000000000447
100
AcDbArc
 50
270.0
 51
348.096908
  0
LINE
  5
202
330
1F
100
AcDbEntity
  8
0
  6
Continuous
 62
     7
370
    15
100
AcDbLine
 10
114.9986347669
 20
156.4058515632
 30
0.0
 11
116.1237697669
 21
156.4058515632
 31
0.0
  0
ARC
  5
203
330
1F
100
AcDbEntity
  8
0
  6
Continuous
 62
     7
370
    15
100
AcDbCircle
 10
114.9986347669
 20
156.5658515632
 30
0.0
 40
0.160000000000025
100
AcDbArc
 50
208.561085
 51
270.0
  0
LINE
  5
204
330
1F
100
AcDbEntity
  8
0
  6
Continuous
 62
     7
370
    15
100
AcDbLine
 10
114.6730305032
 20
156.829356295
 30
0.0
 11
114.8581055032
 21
156.489356295
 31
0.0
  0
ARC
  5
205
330
1F
100
AcDbEntity
  8
0
  6
Continuous
 62
     7
370
    15
100
AcDbCircle
 10
114.8135597669
 20
156.9058515632
 30
0.0
 40
0.1600000000000175
100
AcDbArc
 50
151.438915
 51
208.561085
  0
LINE
  5
206
330
1F
100
AcDbEntity
  8
0
  6
Continuous
 62
     7
370
    15
100
AcDbLine
 10
114.9035597669
 20
157.4058515632
 30
0.0
 11
114.6730305032
 21
156.9823468313
 31
0.0
  0
LINE
  5
207
330
1F
100
AcDbEntity
  8
0
  6
Continuous
 62
     7
370
    15
100
AcDbLine
 10
114.6730305032
 20
157.829356295
 30
0.0
 11
114.9035597669
 21
157.4058515632
 31
0.0
  0
ARC
  5
208
330
1F
100
AcDbEntity
  8
0
  6
Continuous
 62
     7
370
    15
100
AcDbCircle
 10
114.8135597669
 20
157.9058515632
 30
0.0
 40
0.1600000000000175
100
AcDbArc
 50
151.438915
 51
208.561085
  0
LINE
  5
209
330
1F
100
AcDbEntity
  8
0
  6
Continuous
 62
     7
370
    15
100
AcDbLine
 10
114.9035597669
 20
158.4058515632
 30
0.0
 11
114.6730305032
 21
157.9823468313
 31
0.0
  0
LINE
  5
20A
330
1F
100
AcDbEntity
  8
0
  6
Continuous
 62
     7
370
    15
100
AcDbLine
 10
114.6730307669
 20
158.8293565632
 30
0.0
 11
114.9035597669
 21
158.4058515632
 31
0.0
  0
ARC
  5
20B
330
1F
100
AcDbEntity
  8
0
  6
Continuous
 62
     7
370
    15
100
AcDbCircle
 10
114.8135599249
 20
158.9058516492
 30
0.0
 40
0.1599998201029252
100
AcDbArc
 50
151.438915
 51
208.5610457984
  0
LINE
  5
20C
330
1F
100
AcDbEntity
  8
0
  6
Continuous
 62
     7
370
    15
100
AcDbLine
 10
114.9035600829
 20
159.4058515632
 30
0.0
 11
114.6730308192
 21
158.9823468313
 31
0.0
  0
LINE
  5
20D
330
1F
100
AcDbEntity
  8
0
  6
Continuous
 62
     7
370
    15
100
AcDbLine
 10
114.6730310829
 20
159.8293565632
 30
0.0
 11
114.9035600829
 21
159.4058515632
 31
0.0
  0
ARC
  5
20E
330
1F
100
AcDbEntity
  8
0
  6
Continuous
 62
     7
370
    15
100
AcDbCircle
 10
114.8135602409
 20
159.9058516492
 30
0.0
 40
0.159999820102898
100
AcDbArc
 50
180.0
 51
208.5610457984
  0
LINE
  5
20F
330
1F
100
AcDbEntity
  8
0
  6
Continuous
 62
     7
370
    15
100
AcDbLine
 10
114.6535604208
 20
160.4058516492
 30
0.0
 11
114.6535604208
 21
159.9058516492
 31
0.0
  0
LINE
  5
210
330
1F
100
AcDbEntity
  8
0
  6
Continuous
 62
     7
370
    15
100
AcDbLine
 10
108.6535604208
 20
160.4058516492
 30
0.0
 11
114.6535604208
 21
160.4058516492
 31
0.0
  0
LINE
  5
211
330
1F
100
AcDbEntity
  8
0
  6
Continuous
 62
     7
370
    15
100
AcDbLine
 10
108.6535604208
 20
159.9058516492
 30
0.0
 11
108.6535604208
 21
160.4058516492
 31
0.0
  0
ARC
  5
212
330
1F
100
AcDbEntity
  8
0
  6
Continuous
 62
     7
370
    15
100
AcDbCircle
 10
108.4935604208
 20
159.9058516492
 30
0.0
 40
0.160000000000025
100
AcDbArc
 50
331.438915
 51
0.0
  0
LINE
  5
213
330
1F
100
AcDbEntity
  8
0
  6
Continuous
 62
     7
370
    15
100
AcDbLine
 10
108.4035604208
 20
159.4058516492
 30
0.0
 11
108.6340896845
 21
159.829356381
 31
0.0
  0
LINE
  5
214
330
1F
100
AcDbEntity
  8
0
  6
Continuous
 62
     7
370
    15
100
AcDbLine
 10
108.6340894208
 20
158.9823466492
 30
0.0
 11
108.4035604208
 21
159.4058516492
 31
0.0
  0
ARC
  5
215
330
1F
100
AcDbEntity
  8
0
  6
Continuous
 62
     7
370
    15
100
AcDbCircle
 10
108.4935602628
 20
158.9058515632
 30
0.0
 40
0.1599998201029584
100
AcDbArc
 50
331.438915
 51
28.5610457984
  0
LINE
  5
216
330
1F
100
AcDbEntity
  8
0
  6
Continuous
 62
     7
370
    15
100
AcDbLine
 10
108.4035601048
 20
158.4058516492
 30
0.0
 11
108.6340893685
 21
158.829356381
 31
0.0
  0
LINE
  5
217
330
1F
100
AcDbEntity
  8
0
  6
Continuous
 62
     7
370
    15
100
AcDbLine
 10
108.6340891048
 20
157.9823466492
 30
0.0
 11
108.4035601048
 21
158.4058516492
 31
0.0
  0
ARC
  5
218
330
1F
100
AcDbEntity
  8
0
  6
Continuous
 62
     7
370
    15
100
AcDbCircle
 10
108.4935601048
 20
157.9058516492
 30
0.0
 40
0.1599996402058706
100
AcDbArc
 50
331.4389542016
 51
28.5610457984
  0
LINE
  5
219
330
1F
100
AcDbEntity
  8
0
  6
Continuous
 62
     7
370
    15
100
AcDbLine
 10
108.4035601048
 20
157.4058516492
 30
0.0
 11
108.6340891048
 21
157.8293566492
 31
0.0
  0
LINE
  5
21A
330
1F
100
AcDbEntity
  8
0
  6
Continuous
 62
     7
370
    15
100
AcDbLine
 10
108.6340891048
 20
156.9823466492
 30
0.0
 11
108.4035601048
 21
157.4058516492
 31
0.0
  0
ARC
  5
21B
330
1F
100
AcDbEntity
  8
0
  6
Continuous
 62
     7
370
    15
100
AcDbCircle
 10
108.4935601048
 20
156.9058516492
 30
0.0
 40
0.1599996402058955
100
AcDbArc
 50
331.4389542016
 51
28.5610457984
  0
LINE
  5
21C
330
1F
100
AcDbEntity
  8
0
  6
Continuous
 62
     7
370
    15
100
AcDbLine
 10
108.4490143685
 20
156.489356381
 30
0.0
 11
108.6340891048
 21
156.8293566492
 31
0.0
  0
ARC
  5
21D
330
1F
100
AcDbEntity
  8
0
  6
Continuous
 62
     7
370
    15
100
AcDbCircle
 10
108.3084851048
 20
156.5658516492
 30
0.0
 40
0.160000000000025
100
AcDbArc
 50
270.0
 51
331.438915
  0
LINE
  5
21E
330
1F
100
AcDbEntity
  8
0
  6
Continuous
 62
     7
370
    15
100
AcDbLine
 10
107.1833501048
 20
156.4058516492
 30
0.0
 11
108.3084851048
 21
156.4058516492
 31
0.0
  0
ARC
  5
21F
330
1F
100
AcDbEntity
  8
0
  6
Continuous
 62
     7
370
    15
100
AcDbCircle
 10
107.1833501048
 20
156.5658518048
 30
0.0
 40
0.1600001556264572
100
AcDbArc
 50
191.9030251224
 51
270.0
  0
LINE
  5
220
330
1F
100
AcDbEntity
  8
0
  6
Continuous
 62
     7
370
    15
100
AcDbLine
 10
106.3492598282
 20
159.7471032351
 30
0.0
 11
107.0267902571
 21
156.5328508369
 31
0.0
  0
ARC
  5
221
330
1F
100
AcDbEntity
  8
0
  6
Continuous
 62
     7
370
    15
100
AcDbCircle
 10
106.1535602571
 20
159.7058518369
 30
0.0
 40
0.2000000000000285
100
AcDbArc
 50
11.903092
 51
168.096908
  0
ARC
  5
222
330
1F
100
AcDbEntity
  8
0
  6
Continuous
 62
     7
370
    15
100
AcDbCircle
 10
174.493555342
 20
156.9058516492
 30
0.0
 40
0.159999640205908
100
AcDbArc
 50
331.4389542016
 51
28.5610457984
  0
ARC
  5
223
330
1F
100
AcDbEntity
  8
0
  6
Continuous
 62
     7
370
    15
100
AcDbCircle
 10
105.1237704093
 20
156.5658518048
 30
0.0
 40
0.1600001556263919
100
AcDbArc
 50
270.0
 51
348.0969748776
  0
LINE
  5
224
330
1F
100
AcDbEntity
  8
0
  6
Continuous
 62
     7
370
    15
100
AcDbLine
 10
103.9986354093
 20
156.4058516492
 30
0.0
 11
105.1237704093
 21
156.4058516492
 31
0.0
  0
ARC
  5
225
330
1F
100
AcDbEntity
  8
0
  6
Continuous
 62
     7
370
    15
100
AcDbCircle
 10
103.9986354093
 20
156.5658516492
 30
0.0
 40
0.1600000000000153
100
AcDbArc
 50
208.561085
 51
270.0
  0
LINE
  5
226
330
1F
100
AcDbEntity
  8
0
  6
Continuous
 62
     7
370
    15
100
AcDbLine
 10
103.6730314093
 20
156.8293566492
 30
0.0
 11
103.8581061457
 21
156.489356381
 31
0.0
  0
ARC
  5
227
330
1F
100
AcDbEntity
  8
0
  6
Continuous
 62
     7
370
    15
100
AcDbCircle
 10
103.8135604093
 20
156.9058516492
 30
0.0
 40
0.159999640205832
100
AcDbArc
 50
151.4389542016
 51
208.5610457984
  0
LINE
  5
228
330
1F
100
AcDbEntity
  8
0
  6
Continuous
 62
     7
370
    15
100
AcDbLine
 10
103.9035604093
 20
157.4058516492
 30
0.0
 11
103.6730314093
 21
156.9823466492
 31
0.0
  0
LINE
  5
229
330
1F
100
AcDbEntity
  8
0
  6
Continuous
 62
     7
370
    15
100
AcDbLine
 10
103.6730314093
 20
157.8293566492
 30
0.0
 11
103.9035604093
 21
157.4058516492
 31
0.0
  0
ARC
  5
22A
330
1F
100
AcDbEntity
  8
0
  6
Continuous
 62
     7
370
    15
100
AcDbCircle
 10
103.8135604093
 20
157.9058516492
 30
0.0
 40
0.159999640205832
100
AcDbArc
 50
151.4389542016
 51
208.5610457984
  0
LINE
  5
22B
330
1F
100
AcDbEntity
  8
0
  6
Continuous
 62
     7
370
    15
100
AcDbLine
 10
103.9035604093
 20
158.4058516492
 30
0.0
 11
103.6730314093
 21
157.9823466492
 31
0.0
  0
LINE
  5
22C
330
1F
100
AcDbEntity
  8
0
  6
Continuous
 62
     7
370
    15
100
AcDbLine
 10
103.6730311457
 20
158.829356381
 30
0.0
 11
103.9035604093
 21
158.4058516492
 31
0.0
  0
ARC
  5
22D
330
1F
100
AcDbEntity
  8
0
  6
Continuous
 62
     7
370
    15
100
AcDbCircle
 10
103.8135602513
 20
158.9058515632
 30
0.0
 40
0.159999820102923
100
AcDbArc
 50
151.4389542016
 51
208.561085
  0
LINE
  5
22E
330
1F
100
AcDbEntity
  8
0
  6
Continuous
 62
     7
370
    15
100
AcDbLine
 10
103.9035600933
 20
159.4058516492
 30
0.0
 11
103.6730310933
 21
158.9823466492
 31
0.0
  0
LINE
  5
22F
330
1F
100
AcDbEntity
  8
0
  6
Continuous
 62
     7
370
    15
100
AcDbLine
 10
103.6730308297
 20
159.829356381
 30
0.0
 11
103.9035600933
 21
159.4058516492
 31
0.0
  0
ARC
  5
230
330
1F
100
AcDbEntity
  8
0
  6
Continuous
 62
     7
370
    15
100
AcDbCircle
 10
103.8135600933
 20
159.9058516492
 30
0.0
 40
0.1600000000000039
100
AcDbArc
 50
180.0
 51
208.561085
  0
LINE
  5
231
330
1F
100
AcDbEntity
  8
0
  6
Continuous
 62
     7
370
    15
100
AcDbLine
 10
103.6535600933
 20
160.4058516492
 30
0.0
 11
103.6535600933
 21
159.9058516492
 31
0.0
  0
LINE
  5
232
330
1F
100
AcDbEntity
  8
0
  6
Continuous
 62
     7
370
    15
100
AcDbLine
 10
97.6535600933
 20
160.4058516492
 30
0.0
 11
103.6535600933
 21
160.4058516492
 31
0.0
  0
LINE
  5
233
330
1F
100
AcDbEntity
  8
0
  6
Continuous
 62
     7
370
    15
100
AcDbLine
 10
97.6535600933
 20
159.9058516492
 30
0.0
 11
97.6535600933
 21
160.4058516492
 31
0.0
  0
ARC
  5
234
330
1F
100
AcDbEntity
  8
0
  6
Continuous
 62
     7
370
    15
100
AcDbCircle
 10
97.4935602732
 20
159.9058516492
 30
0.0
 40
0.1599998201028753
100
AcDbArc
 50
331.4389542016
 51
0.0
  0
LINE
  5
235
330
1F
100
AcDbEntity
  8
0
  6
Continuous
 62
     7
370
    15
100
AcDbLine
 10
97.4035604312
 20
159.4058515632
 30
0.0
 11
97.6340894312
 21
159.8293565632
 31
0.0
  0
LINE
  5
236
330
1F
100
AcDbEntity
  8
0
  6
Continuous
 62
     7
370
    15
100
AcDbLine
 10
97.6340896949
 20
158.9823468313
 30
0.0
 11
97.4035604312
 21
159.4058515632
 31
0.0
  0
ARC
  5
237
330
1F
100
AcDbEntity
  8
0
  6
Continuous
 62
     7
370
    15
100
AcDbCircle
 10
97.4935605892
 20
158.9058516492
 30
0.0
 40
0.1599998201029014
100
AcDbArc
 50
331.4389542016
 51
28.561085
  0
LINE
  5
238
330
1F
100
AcDbEntity
  8
0
  6
Continuous
 62
     7
370
    15
100
AcDbLine
 10
97.4035607472
 20
158.4058515632
 30
0.0
 11
97.6340897472
 21
158.8293565632
 31
0.0
  0
LINE
  5
239
330
1F
100
AcDbEntity
  8
0
  6
Continuous
 62
     7
370
    15
100
AcDbLine
 10
97.6340900109
 20
157.9823468313
 30
0.0
 11
97.4035607472
 21
158.4058515632
 31
0.0
  0
ARC
  5
23A
330
1F
100
AcDbEntity
  8
0
  6
Continuous
 62
     7
370
    15
100
AcDbCircle
 10
97.4935607472
 20
157.9058515632
 30
0.0
 40
0.1600000000000175
100
AcDbArc
 50
331.438915
 51
28.561085
  0
LINE
  5
23B
330
1F
100
AcDbEntity
  8
0
  6
Continuous
 62
     7
370
    15
100
AcDbLine
 10
97.4035607472
 20
157.4058515632
 30
0.0
 11
97.6340900109
 21
157.829356295
 31
0.0
  0
LINE
  5
23C
330
1F
100
AcDbEntity
  8
0
  6
Continuous
 62
     7
370
    15
100
AcDbLine
 10
97.6340900109
 20
156.9823468313
 30
0.0
 11
97.4035607472
 21
157.4058515632
 31
0.0
  0
ARC
  5
23D
330
1F
100
AcDbEntity
  8
0
  6
Continuous
 62
     7
370
    15
100
AcDbCircle
 10
97.4935607472
 20
156.9058515632
 30
0.0
 40
0.1600000000000289
100
AcDbArc
 50
331.438915
 51
28.561085
  0
LINE
  5
23E
330
1F
100
AcDbEntity
  8
0
  6
Continuous
 62
     7
370
    15
100
AcDbLine
 10
97.4490150109
 20
156.489356295
 30
0.0
 11
97.6340900109
 21
156.829356295
 31
0.0
  0
ARC
  5
23F
330
1F
100
AcDbEntity
  8
0
  6
Continuous
 62
     7
370
    15
100
AcDbCircle
 10
97.3084857472
 20
156.5658515632
 30
0.0
 40
0.1600000000000039
100
AcDbArc
 50
270.0
 51
331.438915
  0
LINE
  5
240
330
1F
100
AcDbEntity
  8
0
  6
Continuous
 62
     7
370
    15
100
AcDbLine
 10
96.1833507472
 20
156.4058515632
 30
0.0
 11
97.3084857472
 21
156.4058515632
 31
0.0
  0
ARC
  5
241
330
1F
100
AcDbEntity
  8
0
  6
Continuous
 62
     7
370
    15
100
AcDbCircle
 10
96.1833507472
 20
156.5658515632
 30
0.0
 40
0.1600000000000029
100
AcDbArc
 50
191.903092
 51
270.0
  0
LINE
  5
242
330
1F
100
AcDbEntity
  8
0
  6
Continuous
 62
     7
370
    15
100
AcDbLine
 10
95.3492607472
 20
159.7471025632
 30
0.0
 11
96.0267910903
 21
156.5328504446
 31
0.0
  0
ARC
  5
243
330
1F
100
AcDbEntity
  8
0
  6
Continuous
 62
     7
370
    15
100
AcDbCircle
 10
95.1535607472
 20
159.7058515632
 30
0.0
 40
0.2000003375022091
100
AcDbArc
 50
11.9029550427
 51
168.0970449573
  0
LINE
  5
244
330
1F
100
AcDbEntity
  8
0
  6
Continuous
 62
     7
370
    15
100
AcDbLine
 10
187.6504022775
 20
117.7653560329
 30
0.0
 11
184.6686204346
 21
117.5035526026
 31
0.0
  0
ARC
  5
245
330
1F
100
AcDbEntity
  8
0
  6
Continuous
 62
     7
370
    15
100
AcDbCircle
 10
187.6066692926
 20
118.2634398615
 30
0.0
 40
0.500000074280982
100
AcDbArc
 50
275.017842099
 51
0.6160562121
  0
LINE
  5
246
330
1F
100
AcDbEntity
  8
0
  6
Continuous
 62
     7
370
    15
100
AcDbLine
 10
188.0820844646
 20
120.5525528634
 30
0.0
 11
188.1066404646
 21
118.2688158634
 31
0.0
  0
ARC
  5
247
330
1F
100
AcDbEntity
  8
0
  6
Continuous
 62
     7
370
    15
100
AcDbCircle
 10
187.5821134302
 20
120.547176863
 30
0.0
 40
0.4999999366709917
100
AcDbArc
 50
0.6160562121
 51
85.010107414
  0
ARC
  5
248
330
1F
100
AcDbEntity
  8
0
  6
Continuous
 62
     7
370
    15
100
AcDbCircle
 10
127.123769429
 20
156.5658518048
 30
0.0
 40
0.1600001556264074
100
AcDbArc
 50
270.0
 51
348.0969748776
  0
LINE
  5
249
330
1F
100
AcDbEntity
  8
0
  6
Continuous
 62
     7
370
    15
100
AcDbLine
 10
125.998634429
 20
156.4058516492
 30
0.0
 11
127.123769429
 21
156.4058516492
 31
0.0
  0
ARC
  5
24A
330
1F
100
AcDbEntity
  8
0
  6
Continuous
 62
     7
370
    15
100
AcDbCircle
 10
125.998634429
 20
156.5658516492
 30
0.0
 40
0.160000000000025
100
AcDbArc
 50
208.561085
 51
270.0
  0
LINE
  5
24B
330
1F
100
AcDbEntity
  8
0
  6
Continuous
 62
     7
370
    15
100
AcDbLine
 10
125.673030429
 20
156.8293566492
 30
0.0
 11
125.8581051653
 21
156.489356381
 31
0.0
  0
ARC
  5
24C
330
1F
100
AcDbEntity
  8
0
  6
Continuous
 62
     7
370
    15
100
AcDbCircle
 10
160.1237666676
 20
156.5658511799
 30
0.0
 40
0.160000000000025
100
AcDbArc
 50
270.0
 51
348.096908
  0
LINE
  5
24D
330
1F
100
AcDbEntity
  8
0
  6
Continuous
 62
     7
370
    15
100
AcDbLine
 10
158.9986316676
 20
156.4058511799
 30
0.0
 11
160.1237666676
 21
156.4058511799
 31
0.0
  0
ARC
  5
24E
330
1F
100
AcDbEntity
  8
0
  6
Continuous
 62
     7
370
    15
100
AcDbCircle
 10
158.9986316676
 20
156.5658514392
 30
0.0
 40
0.1600002592574299
100
AcDbArc
 50
208.5608745938
 51
270.0
  0
LINE
  5
24F
330
1F
100
AcDbEntity
  8
0
  6
Continuous
 62
     7
370
    15
100
AcDbLine
 10
158.6730276316
 20
156.829356295
 30
0.0
 11
158.8581018953
 21
156.4893565631
 31
0.0
  0
ARC
  5
250
330
1F
100
AcDbEntity
  8
0
  6
Continuous
 62
     7
370
    15
100
AcDbCircle
 10
158.8135568953
 20
156.9058515631
 30
0.0
 40
0.1600000000000175
100
AcDbArc
 50
151.438915
 51
208.561085
  0
LINE
  5
251
330
1F
100
AcDbEntity
  8
0
  6
Continuous
 62
     7
370
    15
100
AcDbLine
 10
158.9035568953
 20
157.4058515631
 30
0.0
 11
158.6730276316
 21
156.9823468313
 31
0.0
  0
LINE
  5
252
330
1F
100
AcDbEntity
  8
0
  6
Continuous
 62
     7
370
    15
100
AcDbLine
 10
158.6730276316
 20
157.829356295
 30
0.0
 11
158.9035568953
 21
157.4058515631
 31
0.0
  0
ARC
  5
253
330
1F
100
AcDbEntity
  8
0
  6
Continuous
 62
     7
370
    15
100
AcDbCircle
 10
158.8135568953
 20
157.9058515631
 30
0.0
 40
0.1600000000000039
100
AcDbArc
 50
151.438915
 51
208.561085
  0
LINE
  5
254
330
1F
100
AcDbEntity
  8
0
  6
Continuous
 62
     7
370
    15
100
AcDbLine
 10
158.9035568953
 20
158.4058515631
 30
0.0
 11
158.6730276316
 21
157.9823468313
 31
0.0
  0
LINE
  5
255
330
1F
100
AcDbEntity
  8
0
  6
Continuous
 62
     7
370
    15
100
AcDbLine
 10
158.6730278953
 20
158.8293565631
 30
0.0
 11
158.9035568953
 21
158.4058515631
 31
0.0
  0
ARC
  5
256
330
1F
100
AcDbEntity
  8
0
  6
Continuous
 62
     7
370
    15
100
AcDbCircle
 10
158.8135570533
 20
158.9058516492
 30
0.0
 40
0.1599998201029116
100
AcDbArc
 50
151.438915
 51
208.5610457984
  0
LINE
  5
257
330
1F
100
AcDbEntity
  8
0
  6
Continuous
 62
     7
370
    15
100
AcDbLine
 10
158.9035572113
 20
159.4058515631
 30
0.0
 11
158.6730279477
 21
158.9823468313
 31
0.0
  0
LINE
  5
258
330
1F
100
AcDbEntity
  8
0
  6
Continuous
 62
     7
370
    15
100
AcDbLine
 10
158.6730282113
 20
159.8293565631
 30
0.0
 11
158.9035572113
 21
159.4058515631
 31
0.0
  0
ARC
  5
259
330
1F
100
AcDbEntity
  8
0
  6
Continuous
 62
     7
370
    15
100
AcDbCircle
 10
158.8135573693
 20
159.9058516492
 30
0.0
 40
0.159999820102898
100
AcDbArc
 50
180.0
 51
208.5610457984
  0
LINE
  5
25A
330
1F
100
AcDbEntity
  8
0
  6
Continuous
 62
     7
370
    15
100
AcDbLine
 10
158.6535575492
 20
160.4058516492
 30
0.0
 11
158.6535575492
 21
159.9058516492
 31
0.0
  0
LINE
  5
25B
330
1F
100
AcDbEntity
  8
0
  6
Continuous
 62
     7
370
    15
100
AcDbLine
 10
152.6535575492
 20
160.4058516492
 30
0.0
 11
158.6535575492
 21
160.4058516492
 31
0.0
  0
LINE
  5
25C
330
1F
100
AcDbEntity
  8
0
  6
Continuous
 62
     7
370
    15
100
AcDbLine
 10
152.6535575492
 20
159.9058516492
 30
0.0
 11
152.6535575492
 21
160.4058516492
 31
0.0
  0
ARC
  5
25D
330
1F
100
AcDbEntity
  8
0
  6
Continuous
 62
     7
370
    15
100
AcDbCircle
 10
152.4935575492
 20
159.9058516492
 30
0.0
 40
0.1600000000000039
100
AcDbArc
 50
331.438915
 51
0.0
  0
LINE
  5
25E
330
1F
100
AcDbEntity
  8
0
  6
Continuous
 62
     7
370
    15
100
AcDbLine
 10
152.4035575492
 20
159.4058516492
 30
0.0
 11
152.6340868129
 21
159.829356381
 31
0.0
  0
LINE
  5
25F
330
1F
100
AcDbEntity
  8
0
  6
Continuous
 62
     7
370
    15
100
AcDbLine
 10
152.6340865492
 20
158.9823466492
 30
0.0
 11
152.4035575492
 21
159.4058516492
 31
0.0
  0
ARC
  5
260
330
1F
100
AcDbEntity
  8
0
  6
Continuous
 62
     7
370
    15
100
AcDbCircle
 10
152.4935573912
 20
158.9058515631
 30
0.0
 40
0.1599998201029366
100
AcDbArc
 50
331.438915
 51
28.5610457984
  0
LINE
  5
261
330
1F
100
AcDbEntity
  8
0
  6
Continuous
 62
     7
370
    15
100
AcDbLine
 10
152.4035572332
 20
158.4058516492
 30
0.0
 11
152.6340864969
 21
158.829356381
 31
0.0
  0
LINE
  5
262
330
1F
100
AcDbEntity
  8
0
  6
Continuous
 62
     7
370
    15
100
AcDbLine
 10
152.6340862332
 20
157.9823466492
 30
0.0
 11
152.4035572332
 21
158.4058516492
 31
0.0
  0
ARC
  5
263
330
1F
100
AcDbEntity
  8
0
  6
Continuous
 62
     7
370
    15
100
AcDbCircle
 10
152.4935572332
 20
157.9058516492
 30
0.0
 40
0.1599996402058695
100
AcDbArc
 50
331.4389542016
 51
28.5610457984
  0
LINE
  5
264
330
1F
100
AcDbEntity
  8
0
  6
Continuous
 62
     7
370
    15
100
AcDbLine
 10
152.4035572332
 20
157.4058516492
 30
0.0
 11
152.6340862332
 21
157.8293566492
 31
0.0
  0
LINE
  5
265
330
1F
100
AcDbEntity
  8
0
  6
Continuous
 62
     7
370
    15
100
AcDbLine
 10
152.6340862332
 20
156.9823466492
 30
0.0
 11
152.4035572332
 21
157.4058516492
 31
0.0
  0
LINE
  5
266
330
1F
100
AcDbEntity
  8
0
  6
Continuous
 62
     7
370
    15
100
AcDbLine
 10
83.0148307779
 20
152.503552601
 30
0.0
 11
80.0330494088
 21
152.7653567929
 31
0.0
  0
ARC
  5
267
330
1F
100
AcDbEntity
  8
0
  6
Continuous
 62
     7
370
    15
100
AcDbCircle
 10
82.962351759
 20
151.9058523857
 30
0.0
 40
0.5999996622856958
100
AcDbArc
 50
274.9897974549
 51
84.9822082953
  0
LINE
  5
268
330
1F
100
AcDbEntity
  8
0
  6
Continuous
 62
     7
370
    15
100
AcDbLine
 10
80.0040849949
 20
151.0452826522
 30
0.0
 11
83.0145387402
 21
151.308126601
 31
0.0
  0
ARC
  5
269
330
1F
100
AcDbEntity
  8
0
  6
Continuous
 62
     7
370
    15
100
AcDbCircle
 10
80.0475747402
 20
150.547177601
 30
0.0
 40
0.5000000000000084
100
AcDbArc
 50
94.989863
 51
179.38394
  0
LINE
  5
26A
330
1F
100
AcDbEntity
  8
0
  6
Continuous
 62
     7
370
    15
100
AcDbLine
 10
79.5230466427
 20
148.2688166351
 30
0.0
 11
79.5476036427
 21
150.5525536351
 31
0.0
  0
ARC
  5
26B
330
1F
100
AcDbEntity
  8
0
  6
Continuous
 62
     7
370
    15
100
AcDbCircle
 10
80.0230177402
 20
148.263440601
 30
0.0
 40
0.5000000000000054
100
AcDbArc
 50
179.38394
 51
264.982228
  0
LINE
  5
26C
330
1F
100
AcDbEntity
  8
0
  6
Continuous
 62
     7
370
    15
100
AcDbLine
 10
82.9610667402
 20
147.503552601
 30
0.0
 11
79.9792853711
 21
147.7653567929
 31
0.0
  0
ARC
  5
26D
330
1F
100
AcDbEntity
  8
0
  6
Continuous
 62
     7
370
    15
100
AcDbCircle
 10
82.9085877175
 20
146.9058523424
 30
0.0
 40
0.5999997057752952
100
AcDbArc
 50
274.989892586
 51
84.9822082953
  0
LINE
  5
26E
330
1F
100
AcDbEntity
  8
0
  6
Continuous
 62
     7
370
    15
100
AcDbLine
 10
79.9503209496
 20
146.0452826522
 30
0.0
 11
82.9607756949
 21
146.308126601
 31
0.0
  0
ARC
  5
26F
330
1F
100
AcDbEntity
  8
0
  6
Continuous
 62
     7
370
    15
100
AcDbCircle
 10
79.9938106949
 20
145.547177601
 30
0.0
 40
0.4999999999999487
100
AcDbArc
 50
94.989863
 51
179.38394
  0
LINE
  5
270
330
1F
100
AcDbEntity
  8
0
  6
Continuous
 62
     7
370
    15
100
AcDbLine
 10
79.4692835975
 20
143.2688166351
 30
0.0
 11
79.4938395975
 21
145.5525536351
 31
0.0
  0
ARC
  5
271
330
1F
100
AcDbEntity
  8
0
  6
Continuous
 62
     7
370
    15
100
AcDbCircle
 10
79.9692546949
 20
143.263440601
 30
0.0
 40
0.4999999999999992
100
AcDbArc
 50
179.38394
 51
264.982228
  0
LINE
  5
272
330
1F
100
AcDbEntity
  8
0
  6
Continuous
 62
     7
370
    15
100
AcDbLine
 10
82.9073036949
 20
142.503552601
 30
0.0
 11
79.9255223258
 21
142.7653567929
 31
0.0
  0
ARC
  5
273
330
1F
100
AcDbEntity
  8
0
  6
Continuous
 62
     7
370
    15
100
AcDbCircle
 10
82.8548246722
 20
141.9058523424
 30
0.0
 40
0.5999997057753034
100
AcDbArc
 50
274.989892586
 51
84.9822082953
  0
LINE
  5
274
330
1F
100
AcDbEntity
  8
0
  6
Continuous
 62
     7
370
    15
100
AcDbLine
 10
79.8965579043
 20
141.0452826522
 30
0.0
 11
82.9070126496
 21
141.308126601
 31
0.0
  0
ARC
  5
275
330
1F
100
AcDbEntity
  8
0
  6
Continuous
 62
     7
370
    15
100
AcDbCircle
 10
79.9400476496
 20
140.547177601
 30
0.0
 40
0.5000000000000084
100
AcDbArc
 50
94.989863
 51
179.38394
  0
LINE
  5
276
330
1F
100
AcDbEntity
  8
0
  6
Continuous
 62
     7
370
    15
100
AcDbLine
 10
79.4155195522
 20
138.2688166351
 30
0.0
 11
79.4400765522
 21
140.5525536351
 31
0.0
  0
ARC
  5
277
330
1F
100
AcDbEntity
  8
0
  6
Continuous
 62
     7
370
    15
100
AcDbCircle
 10
79.9154906496
 20
138.263440601
 30
0.0
 40
0.5000000000000097
100
AcDbArc
 50
179.3839399998
 51
264.982228
  0
LINE
  5
278
330
1F
100
AcDbEntity
  8
0
  6
Continuous
 62
     7
370
    15
100
AcDbLine
 10
82.8535396496
 20
137.503552601
 30
0.0
 11
79.8717582805
 21
137.7653567929
 31
0.0
  0
ARC
  5
279
330
1F
100
AcDbEntity
  8
0
  6
Continuous
 62
     7
370
    15
100
AcDbCircle
 10
82.8010606269
 20
136.9058523424
 30
0.0
 40
0.5999997057753034
100
AcDbArc
 50
274.989892586
 51
84.9822082953
  0
LINE
  5
27A
330
1F
100
AcDbEntity
  8
0
  6
Continuous
 62
     7
370
    15
100
AcDbLine
 10
79.842793859
 20
136.0452826522
 30
0.0
 11
82.8532486043
 21
136.308126601
 31
0.0
  0
ARC
  5
27B
330
1F
100
AcDbEntity
  8
0
  6
Continuous
 62
     7
370
    15
100
AcDbCircle
 10
79.8862836043
 20
135.547177601
 30
0.0
 40
0.5000000000000063
100
AcDbArc
 50
94.989863
 51
179.38394
  0
LINE
  5
27C
330
1F
100
AcDbEntity
  8
0
  6
Continuous
 62
     7
370
    15
100
AcDbLine
 10
79.3617565069
 20
133.2688166351
 30
0.0
 11
79.3863125069
 21
135.5525536351
 31
0.0
  0
ARC
  5
27D
330
1F
100
AcDbEntity
  8
0
  6
Continuous
 62
     7
370
    15
100
AcDbCircle
 10
79.8617276043
 20
133.263440601
 30
0.0
 40
0.4999999999999992
100
AcDbArc
 50
179.3839400002
 51
264.982228
  0
LINE
  5
27E
330
1F
100
AcDbEntity
  8
0
  6
Continuous
 62
     7
370
    15
100
AcDbLine
 10
82.7997766043
 20
132.503552601
 30
0.0
 11
79.8179952353
 21
132.7653567929
 31
0.0
  0
ARC
  5
27F
330
1F
100
AcDbEntity
  8
0
  6
Continuous
 62
     7
370
    15
100
AcDbCircle
 10
82.7472975816
 20
131.9058523424
 30
0.0
 40
0.5999997057752867
100
AcDbArc
 50
274.989892586
 51
84.9822082953
  0
LINE
  5
280
330
1F
100
AcDbEntity
  8
0
  6
Continuous
 62
     7
370
    15
100
AcDbLine
 10
79.7890308137
 20
131.0452826523
 30
0.0
 11
82.799485559
 21
131.308126601
 31
0.0
  0
ARC
  5
281
330
1F
100
AcDbEntity
  8
0
  6
Continuous
 62
     7
370
    15
100
AcDbCircle
 10
79.832520559
 20
130.547177601
 30
0.0
 40
0.4999999999999741
100
AcDbArc
 50
94.9898629997
 51
179.38394
  0
LINE
  5
282
330
1F
100
AcDbEntity
  8
0
  6
Continuous
 62
     7
370
    15
100
AcDbLine
 10
79.3079934616
 20
128.2688166351
 30
0.0
 11
79.3325494616
 21
130.5525536351
 31
0.0
  0
ARC
  5
283
330
1F
100
AcDbEntity
  8
0
  6
Continuous
 62
     7
370
    15
100
AcDbCircle
 10
79.807964559
 20
128.263440601
 30
0.0
 40
0.5000000000000061
100
AcDbArc
 50
179.38394
 51
264.982228
  0
LINE
  5
284
330
1F
100
AcDbEntity
  8
0
  6
Continuous
 62
     7
370
    15
100
AcDbLine
 10
82.746012559
 20
127.503552601
 30
0.0
 11
79.76423219
 21
127.7653567929
 31
0.0
  0
ARC
  5
285
330
1F
100
AcDbEntity
  8
0
  6
Continuous
 62
     7
370
    15
100
AcDbCircle
 10
82.6935335363
 20
126.9058523425
 30
0.0
 40
0.5999997057752892
100
AcDbArc
 50
274.989892586
 51
84.9822082953
  0
LINE
  5
286
330
1F
100
AcDbEntity
  8
0
  6
Continuous
 62
     7
370
    15
100
AcDbLine
 10
79.7352667685
 20
126.0452826523
 30
0.0
 11
82.7457215138
 21
126.308126601
 31
0.0
  0
ARC
  5
287
330
1F
100
AcDbEntity
  8
0
  6
Continuous
 62
     7
370
    15
100
AcDbCircle
 10
79.7787565138
 20
125.547177601
 30
0.0
 40
0.5000000000000084
100
AcDbArc
 50
94.989863
 51
179.38394
  0
LINE
  5
288
330
1F
100
AcDbEntity
  8
0
  6
Continuous
 62
     7
370
    15
100
AcDbLine
 10
79.2542294163
 20
123.2688166352
 30
0.0
 11
79.2787854163
 21
125.5525536352
 31
0.0
  0
ARC
  5
289
330
1F
100
AcDbEntity
  8
0
  6
Continuous
 62
     7
370
    15
100
AcDbCircle
 10
79.7542005138
 20
123.263440601
 30
0.0
 40
0.5000000000000059
100
AcDbArc
 50
179.38394
 51
264.982228
  0
LINE
  5
28A
330
1F
100
AcDbEntity
  8
0
  6
Continuous
 62
     7
370
    15
100
AcDbLine
 10
82.6922495138
 20
122.503552601
 30
0.0
 11
79.7104681447
 21
122.7653567929
 31
0.0
  0
ARC
  5
28B
330
1F
100
AcDbEntity
  8
0
  6
Continuous
 62
     7
370
    15
100
AcDbCircle
 10
82.6397704911
 20
121.9058523425
 30
0.0
 40
0.5999997057752892
100
AcDbArc
 50
274.989892586
 51
84.9822082953
  0
LINE
  5
28C
330
1F
100
AcDbEntity
  8
0
  6
Continuous
 62
     7
370
    15
100
AcDbLine
 10
79.6815037232
 20
121.0452826523
 30
0.0
 11
82.6919584685
 21
121.3081266011
 31
0.0
  0
ARC
  5
28D
330
1F
100
AcDbEntity
  8
0
  6
Continuous
 62
     7
370
    15
100
AcDbCircle
 10
79.7249934685
 20
120.5471776011
 30
0.0
 40
0.5000000000000084
100
AcDbArc
 50
94.989863
 51
179.38394
  0
LINE
  5
28E
330
1F
100
AcDbEntity
  8
0
  6
Continuous
 62
     7
370
    15
100
AcDbLine
 10
79.2004663711
 20
118.2688166352
 30
0.0
 11
79.2250223711
 21
120.5525536352
 31
0.0
  0
ARC
  5
28F
330
1F
100
AcDbEntity
  8
0
  6
Continuous
 62
     7
370
    15
100
AcDbCircle
 10
79.7004374685
 20
118.2634406011
 30
0.0
 40
0.5000000000000059
100
AcDbArc
 50
179.38394
 51
264.982228
  0
LINE
  5
290
330
1F
100
AcDbEntity
  8
0
  6
Continuous
 62
     7
370
    15
100
AcDbLine
 10
82.6384854685
 20
117.5035526011
 30
0.0
 11
79.6567050994
 21
117.765356793
 31
0.0
  0
ARC
  5
291
330
1F
100
AcDbEntity
  8
0
  6
Continuous
 62
     7
370
    15
100
AcDbCircle
 10
82.5860074457
 20
116.9058523422
 30
0.0
 40
0.599999618553564
100
AcDbArc
 50
274.9897974549
 51
84.9823034224
  0
LINE
  5
292
330
1F
100
AcDbEntity
  8
0
  6
Continuous
 62
     7
370
    15
100
AcDbLine
 10
79.6277406778
 20
116.0452826523
 30
0.0
 11
82.6381944232
 21
116.3081266011
 31
0.0
  0
ARC
  5
293
330
1F
100
AcDbEntity
  8
0
  6
Continuous
 62
     7
370
    15
100
AcDbCircle
 10
79.6712304232
 20
115.5471776011
 30
0.0
 40
0.5000000000000059
100
AcDbArc
 50
94.989863
 51
179.38394
  0
LINE
  5
294
330
1F
100
AcDbEntity
  8
0
  6
Continuous
 62
     7
370
    15
100
AcDbLine
 10
79.1467023257
 20
113.2688166352
 30
0.0
 11
79.1712593257
 21
115.5525536352
 31
0.0
  0
ARC
  5
295
330
1F
100
AcDbEntity
  8
0
  6
Continuous
 62
     7
370
    15
100
AcDbCircle
 10
79.6466734232
 20
113.2634406011
 30
0.0
 40
0.4999999999999901
100
AcDbArc
 50
179.3839399998
 51
264.982228
  0
LINE
  5
296
330
1F
100
AcDbEntity
  8
0
  6
Continuous
 62
     7
370
    15
100
AcDbLine
 10
82.5847224232
 20
112.5035526011
 30
0.0
 11
79.6029410541
 21
112.765356793
 31
0.0
  0
ARC
  5
297
330
1F
100
AcDbEntity
  8
0
  6
Continuous
 62
     7
370
    15
100
AcDbCircle
 10
82.5322434004
 20
111.9058523425
 30
0.0
 40
0.5999997057753083
100
AcDbArc
 50
274.989892586
 51
84.9822082953
  0
LINE
  5
298
330
1F
100
AcDbEntity
  8
0
  6
Continuous
 62
     7
370
    15
100
AcDbLine
 10
79.5739766326
 20
111.0452826523
 30
0.0
 11
82.5844313779
 21
111.3081266011
 31
0.0
  0
ARC
  5
299
330
1F
100
AcDbEntity
  8
0
  6
Continuous
 62
     7
370
    15
100
AcDbCircle
 10
79.6174663779
 20
110.5471776011
 30
0.0
 40
0.5000000000000225
100
AcDbArc
 50
94.989863
 51
179.38394
  0
LINE
  5
29A
330
1F
100
AcDbEntity
  8
0
  6
Continuous
 62
     7
370
    15
100
AcDbLine
 10
79.0929392804
 20
108.2688166352
 30
0.0
 11
79.1174952804
 21
110.5525536352
 31
0.0
  0
ARC
  5
29B
330
1F
100
AcDbEntity
  8
0
  6
Continuous
 62
     7
370
    15
100
AcDbCircle
 10
79.5929103779
 20
108.2634406011
 30
0.0
 40
0.5000000000000608
100
AcDbArc
 50
179.3839399998
 51
264.982228
  0
LINE
  5
29C
330
1F
100
AcDbEntity
  8
0
  6
Continuous
 62
     7
370
    15
100
AcDbLine
 10
82.5309593779
 20
107.5035526011
 30
0.0
 11
79.5491780088
 21
107.765356793
 31
0.0
  0
ARC
  5
29D
330
1F
100
AcDbEntity
  8
0
  6
Continuous
 62
     7
370
    15
100
AcDbCircle
 10
82.478480359
 20
106.9058523858
 30
0.0
 40
0.5999996622857149
100
AcDbArc
 50
274.9897974549
 51
84.9822082953
  0
LINE
  5
29E
330
1F
100
AcDbEntity
  8
0
  6
Continuous
 62
     7
370
    15
100
AcDbLine
 10
79.5202135949
 20
106.0452826523
 30
0.0
 11
82.5306673402
 21
106.3081266011
 31
0.0
  0
ARC
  5
29F
330
1F
100
AcDbEntity
  8
0
  6
Continuous
 62
     7
370
    15
100
AcDbCircle
 10
79.5637033402
 20
105.5471776011
 30
0.0
 40
0.5000000000000062
100
AcDbArc
 50
94.989863
 51
179.38394
  0
LINE
  5
2A0
330
1F
100
AcDbEntity
  8
0
  6
Continuous
 62
     7
370
    15
100
AcDbLine
 10
79.0391752428
 20
103.2688166352
 30
0.0
 11
79.0637322428
 21
105.5525536352
 31
0.0
  0
ARC
  5
2A1
330
1F
100
AcDbEntity
  8
0
  6
Continuous
 62
     7
370
    15
100
AcDbCircle
 10
79.5391463402
 20
103.2634406011
 30
0.0
 40
0.5000000000000325
100
AcDbArc
 50
179.3839399998
 51
264.982228
  0
LINE
  5
2A2
330
1F
100
AcDbEntity
  8
0
  6
Continuous
 62
     7
370
    15
100
AcDbLine
 10
82.4771953402
 20
102.5035526011
 30
0.0
 11
79.4954139711
 21
102.765356793
 31
0.0
  0
ARC
  5
2A3
330
1F
100
AcDbEntity
  8
0
  6
Continuous
 62
     7
370
    15
100
AcDbCircle
 10
82.4247163175
 20
101.9058523425
 30
0.0
 40
0.5999997057752936
100
AcDbArc
 50
274.989892586
 51
84.9822082953
  0
LINE
  5
2A4
330
1F
100
AcDbEntity
  8
0
  6
Continuous
 62
     7
370
    15
100
AcDbLine
 10
79.4664495496
 20
101.0452826523
 30
0.0
 11
82.4769042949
 21
101.3081266011
 31
0.0
  0
ARC
  5
2A5
330
1F
100
AcDbEntity
  8
0
  6
Continuous
 62
     7
370
    15
100
AcDbCircle
 10
79.5099392949
 20
100.5471776011
 30
0.0
 40
0.5000000000000631
100
AcDbArc
 50
94.989863
 51
179.38394
  0
LINE
  5
2A6
330
1F
100
AcDbEntity
  8
0
  6
Continuous
 62
     7
370
    15
100
AcDbLine
 10
78.9854121975
 20
98.2688166352
 30
0.0
 11
79.0099681975
 21
100.5525536352
 31
0.0
  0
ARC
  5
2A7
330
1F
100
AcDbEntity
  8
0
  6
Continuous
 62
     7
370
    15
100
AcDbCircle
 10
79.4853832949
 20
98.2634406011
 30
0.0
 40
0.5000000000000062
100
AcDbArc
 50
179.38394
 51
264.982228
  0
LINE
  5
2A8
330
1F
100
AcDbEntity
  8
0
  6
Continuous
 62
     7
370
    15
100
AcDbLine
 10
82.4234322949
 20
97.5035526011
 30
0.0
 11
79.4416509258
 21
97.765356793
 31
0.0
  0
ARC
  5
2A9
330
1F
100
AcDbEntity
  8
0
  6
Continuous
 62
     7
370
    15
100
AcDbCircle
 10
82.3709532722
 20
96.9058523425
 30
0.0
 40
0.5999997057753083
100
AcDbArc
 50
274.989892586
 51
84.9822082953
  0
LINE
  5
2AA
330
1F
100
AcDbEntity
  8
0
  6
Continuous
 62
     7
370
    15
100
AcDbLine
 10
79.4126865043
 20
96.0452826523
 30
0.0
 11
82.4231412496
 21
96.3081266011
 31
0.0
  0
ARC
  5
2AB
330
1F
100
AcDbEntity
  8
0
  6
Continuous
 62
     7
370
    15
100
AcDbCircle
 10
79.4561762496
 20
95.5471776011
 30
0.0
 40
0.500000000000022
100
AcDbArc
 50
94.989863
 51
179.38394
  0
LINE
  5
2AC
330
1F
100
AcDbEntity
  8
0
  6
Continuous
 62
     7
370
    15
100
AcDbLine
 10
78.9316481522
 20
93.2688166352
 30
0.0
 11
78.9562051522
 21
95.5525536352
 31
0.0
  0
ARC
  5
2AD
330
1F
100
AcDbEntity
  8
0
  6
Continuous
 62
     7
370
    15
100
AcDbCircle
 10
79.4316192496
 20
93.2634406011
 30
0.0
 40
0.5000000000000183
100
AcDbArc
 50
179.3839399997
 51
264.982228
  0
LINE
  5
2AE
330
1F
100
AcDbEntity
  8
0
  6
Continuous
 62
     7
370
    15
100
AcDbLine
 10
82.3696682496
 20
92.5035526011
 30
0.0
 11
79.3878868805
 21
92.765356793
 31
0.0
  0
ARC
  5
2AF
330
1F
100
AcDbEntity
  8
0
  6
Continuous
 62
     7
370
    15
100
AcDbCircle
 10
82.3171892269
 20
91.9058523425
 30
0.0
 40
0.59999970577528
100
AcDbArc
 50
274.989892586
 51
84.9822082953
  0
LINE
  5
2B0
330
1F
100
AcDbEntity
  8
0
  6
Continuous
 62
     7
370
    15
100
AcDbLine
 10
79.358922459
 20
91.0452826523
 30
0.0
 11
82.3693772043
 21
91.3081266011
 31
0.0
  0
ARC
  5
2B1
330
1F
100
AcDbEntity
  8
0
  6
Continuous
 62
     7
370
    15
100
AcDbCircle
 10
79.4024122043
 20
90.5471776011
 30
0.0
 40
0.5000000000000057
100
AcDbArc
 50
94.989863
 51
179.38394
  0
LINE
  5
2B2
330
1F
100
AcDbEntity
  8
0
  6
Continuous
 62
     7
370
    15
100
AcDbLine
 10
78.8778851069
 20
88.2688166352
 30
0.0
 11
78.9024411069
 21
90.5525536352
 31
0.0
  0
ARC
  5
2B3
330
1F
100
AcDbEntity
  8
0
  6
Continuous
 62
     7
370
    15
100
AcDbCircle
 10
79.3778562043
 20
88.2634406011
 30
0.0
 40
0.5000000000001945
100
AcDbArc
 50
179.3839399997
 51
264.982228
  0
LINE
  5
2B4
330
1F
100
AcDbEntity
  8
0
  6
Continuous
 62
     7
370
    15
100
AcDbLine
 10
82.3159052043
 20
87.5035526011
 30
0.0
 11
79.3341238353
 21
87.765356793
 31
0.0
  0
ARC
  5
2B5
330
1F
100
AcDbEntity
  8
0
  6
Continuous
 62
     7
370
    15
100
AcDbCircle
 10
82.2634261816
 20
86.9058523425
 30
0.0
 40
0.5999997057752773
100
AcDbArc
 50
274.989892586
 51
84.9822082953
  0
LINE
  5
2B6
330
1F
100
AcDbEntity
  8
0
  6
Continuous
 62
     7
370
    15
100
AcDbLine
 10
79.3051594137
 20
86.0452826523
 30
0.0
 11
82.315614159
 21
86.3081266011
 31
0.0
  0
ARC
  5
2B7
330
1F
100
AcDbEntity
  8
0
  6
Continuous
 62
     7
370
    15
100
AcDbCircle
 10
79.348649159
 20
85.5471776011
 30
0.0
 40
0.4999999999999488
100
AcDbArc
 50
94.9898629996
 51
179.38394
  0
LINE
  5
2B8
330
1F
100
AcDbEntity
  8
0
  6
Continuous
 62
     7
370
    15
100
AcDbLine
 10
78.8241220616
 20
83.2688166352
 30
0.0
 11
78.8486780616
 21
85.5525536352
 31
0.0
  0
ARC
  5
2B9
330
1F
100
AcDbEntity
  8
0
  6
Continuous
 62
     7
370
    15
100
AcDbCircle
 10
79.324093159
 20
83.2634406011
 30
0.0
 40
0.5000000000000057
100
AcDbArc
 50
179.38394
 51
264.982228
  0
LINE
  5
2BA
330
1F
100
AcDbEntity
  8
0
  6
Continuous
 62
     7
370
    15
100
AcDbLine
 10
82.262141159
 20
82.5035526011
 30
0.0
 11
79.28036079
 21
82.765356793
 31
0.0
  0
ARC
  5
2BB
330
1F
100
AcDbEntity
  8
0
  6
Continuous
 62
     7
370
    15
100
AcDbCircle
 10
82.2096631363
 20
81.9058523423
 30
0.0
 40
0.5999996185535611
100
AcDbArc
 50
274.9897974549
 51
84.9823034224
  0
LINE
  5
2BC
330
1F
100
AcDbEntity
  8
0
  6
Continuous
 62
     7
370
    15
100
AcDbLine
 10
79.2513953684
 20
81.0452826524
 30
0.0
 11
82.2618501137
 21
81.3081266011
 31
0.0
  0
ARC
  5
2BD
330
1F
100
AcDbEntity
  8
0
  6
Continuous
 62
     7
370
    15
100
AcDbCircle
 10
79.2948851137
 20
80.5471776011
 30
0.0
 40
0.5000000000000084
100
AcDbArc
 50
94.989863
 51
179.38394
  0
LINE
  5
2BE
330
1F
100
AcDbEntity
  8
0
  6
Continuous
 62
     7
370
    15
100
AcDbLine
 10
78.7703580163
 20
78.2688166352
 30
0.0
 11
78.7949140163
 21
80.5525536352
 31
0.0
  0
ARC
  5
2BF
330
1F
100
AcDbEntity
  8
0
  6
Continuous
 62
     7
370
    15
100
AcDbCircle
 10
79.2703291137
 20
78.2634406011
 30
0.0
 40
0.5000000000000059
100
AcDbArc
 50
179.38394
 51
264.982228
  0
LINE
  5
2C0
330
1F
100
AcDbEntity
  8
0
  6
Continuous
 62
     7
370
    15
100
AcDbLine
 10
82.2083781137
 20
77.5035526011
 30
0.0
 11
79.2265967447
 21
77.765356793
 31
0.0
  0
ARC
  5
2C1
330
1F
100
AcDbEntity
  8
0
  6
Continuous
 62
     7
370
    15
100
AcDbCircle
 10
82.155899091
 20
76.9058523426
 30
0.0
 40
0.5999997057752892
100
AcDbArc
 50
274.989892586
 51
84.9822082953
  0
LINE
  5
2C2
330
1F
100
AcDbEntity
  8
0
  6
Continuous
 62
     7
370
    15
100
AcDbLine
 10
79.1976323231
 20
76.0452826524
 30
0.0
 11
82.2080870684
 21
76.3081266011
 31
0.0
  0
ARC
  5
2C3
330
1F
100
AcDbEntity
  8
0
  6
Continuous
 62
     7
370
    15
100
AcDbCircle
 10
79.2411220684
 20
75.5471776011
 30
0.0
 40
0.4999999999999518
100
AcDbArc
 50
94.989863
 51
179.38394
  0
LINE
  5
2C4
330
1F
100
AcDbEntity
  8
0
  6
Continuous
 62
     7
370
    15
100
AcDbLine
 10
78.716594971
 20
73.2688166353
 30
0.0
 11
78.741150971
 21
75.5525536353
 31
0.0
  0
ARC
  5
2C5
330
1F
100
AcDbEntity
  8
0
  6
Continuous
 62
     7
370
    15
100
AcDbCircle
 10
79.2165660684
 20
73.2634406011
 30
0.0
 40
0.5000000000000325
100
AcDbArc
 50
179.3839399998
 51
264.982228
  0
LINE
  5
2C6
330
1F
100
AcDbEntity
  8
0
  6
Continuous
 62
     7
370
    15
100
AcDbLine
 10
82.1546140684
 20
72.5035526011
 30
0.0
 11
79.1728336994
 21
72.765356793
 31
0.0
  0
ARC
  5
2C7
330
1F
100
AcDbEntity
  8
0
  6
Continuous
 62
     7
370
    15
100
AcDbCircle
 10
82.1021360457
 20
71.9058523423
 30
0.0
 40
0.599999618553588
100
AcDbArc
 50
274.9897974549
 51
84.9823034224
  0
LINE
  5
2C8
330
1F
100
AcDbEntity
  8
0
  6
Continuous
 62
     7
370
    15
100
AcDbLine
 10
79.1438692778
 20
71.0452826524
 30
0.0
 11
82.1543230231
 21
71.3081266012
 31
0.0
  0
ARC
  5
2C9
330
1F
100
AcDbEntity
  8
0
  6
Continuous
 62
     7
370
    15
100
AcDbCircle
 10
79.1873590231
 20
70.5471776012
 30
0.0
 40
0.5000000000000627
100
AcDbArc
 50
94.9898630003
 51
179.38394
  0
LINE
  5
2CA
330
1F
100
AcDbEntity
  8
0
  6
Continuous
 62
     7
370
    15
100
AcDbLine
 10
78.6589859257
 20
67.9112286353
 30
0.0
 11
78.6873879257
 21
70.5525536353
 31
0.0
  0
ARC
  5
2CB
330
1F
100
AcDbEntity
  8
0
  6
Continuous
 62
     7
370
    15
100
AcDbCircle
 10
79.1589570231
 20
67.9058526012
 30
0.0
 40
0.5000000000000058
100
AcDbArc
 50
179.38394
 51
270.0
  0
LINE
  5
2CC
330
1F
100
AcDbEntity
  8
0
  6
Continuous
 62
     7
370
    15
100
AcDbLine
 10
81.0535520231
 20
67.4058526012
 30
0.0
 11
79.1589570231
 21
67.4058526012
 31
0.0
  0
ARC
  5
2CD
330
1F
100
AcDbEntity
  8
0
  6
Continuous
 62
     7
370
    15
100
AcDbCircle
 10
81.0535520231
 20
63.4058526012
 30
0.0
 40
4.000000000000007
100
AcDbArc
 50
360.0
 51
90.0
  0
LINE
  5
2CE
330
1F
100
AcDbEntity
  8
0
  6
Continuous
 62
     7
370
    15
100
AcDbLine
 10
85.0535520231
 20
57.4058526012
 30
0.0
 11
85.0535520231
 21
63.4058526012
 31
0.0
  0
ARC
  5
2CF
330
1F
100
AcDbEntity
  8
0
  6
Continuous
 62
     7
370
    15
100
AcDbCircle
 10
84.5535520231
 20
57.4058526012
 30
0.0
 40
0.5
100
AcDbArc
 50
270.0
 51
0.0
  0
LINE
  5
2D0
330
1F
100
AcDbEntity
  8
0
  6
Continuous
 62
     7
370
    15
100
AcDbLine
 10
78.6535520231
 20
56.9058526012
 30
0.0
 11
84.5535520231
 21
56.9058526012
 31
0.0
  0
ARC
  5
2D1
330
1F
100
AcDbEntity
  8
0
  6
Continuous
 62
     7
370
    15
100
AcDbCircle
 10
78.6535520231
 20
56.4058526012
 30
0.0
 40
0.5
100
AcDbArc
 50
90.0
 51
180.0
  0
LINE
  5
2D2
330
1F
100
AcDbEntity
  8
0
  6
Continuous
 62
     7
370
    15
100
AcDbLine
 10
78.1535520231
 20
55.9058526012
 30
0.0
 11
78.1535520231
 21
56.4058526012
 31
0.0
  0
ARC
  5
2D3
330
1F
100
AcDbEntity
  8
0
  6
Continuous
 62
     7
370
    15
100
AcDbCircle
 10
77.6535520231
 20
55.9058526012
 30
0.0
 40
0.5000000000000071
100
AcDbArc
 50
270.0
 51
0.0
  0
LINE
  5
2D4
330
1F
100
AcDbEntity
  8
0
  6
Continuous
 62
     7
370
    15
100
AcDbLine
 10
74.1535520231
 20
55.4058526012
 30
0.0
 11
77.6535520231
 21
55.4058526012
 31
0.0
  0
ARC
  5
2D5
330
1F
100
AcDbEntity
  8
0
  6
Continuous
 62
     7
370
    15
100
AcDbCircle
 10
74.1535520231
 20
55.9058526012
 30
0.0
 40
0.5
100
AcDbArc
 50
180.0
 51
270.0
  0
LINE
  5
2D6
330
1F
100
AcDbEntity
  8
0
  6
Continuous
 62
     7
370
    15
100
AcDbLine
 10
73.6535520231
 20
175.9058526012
 30
0.0
 11
73.6535520231
 21
55.9058526012
 31
0.0
  0
ARC
  5
2D7
330
1F
100
AcDbEntity
  8
0
  6
Continuous
 62
     7
370
    15
100
AcDbCircle
 10
74.1535520231
 20
175.9058526012
 30
0.0
 40
0.5
100
AcDbArc
 50
90.0
 51
180.0
  0
LINE
  5
2D8
330
1F
100
AcDbEntity
  8
0
  6
Continuous
 62
     7
370
    15
100
AcDbLine
 10
193.1535520231
 20
176.4058526012
 30
0.0
 11
74.1535520231
 21
176.4058526012
 31
0.0
  0
ARC
  5
2D9
330
1F
100
AcDbEntity
  8
0
  6
Continuous
 62
     7
370
    15
100
AcDbCircle
 10
193.1535520231
 20
175.9058526012
 30
0.0
 40
0.5
100
AcDbArc
 50
0.0
 51
90.0
  0
LINE
  5
2DA
330
1F
100
AcDbEntity
  8
0
  6
Continuous
 62
     7
370
    15
100
AcDbLine
 10
187.7018838253
 20
155.9112272294
 30
0.0
 11
187.7302968253
 21
153.2688152294
 31
0.0
  0
LINE
  5
2DB
330
1F
100
AcDbEntity
  8
0
  6
Continuous
 62
     7
370
    15
100
AcDbLine
 10
171.280325722
 20
156.5328504537
 30
0.0
 11
171.9578561509
 21
159.7471028519
 31
0.0
  0
ARC
  5
2DC
330
1F
100
AcDbEntity
  8
0
  6
Continuous
 62
     7
370
    15
100
AcDbCircle
 10
171.1237658743
 20
156.5658514216
 30
0.0
 40
0.1600001556264203
100
AcDbArc
 50
270.0
 51
348.0969748776
  0
LINE
  5
2DD
330
1F
100
AcDbEntity
  8
0
  6
Continuous
 62
     7
370
    15
100
AcDbLine
 10
169.9986308743
 20
156.405851266
 30
0.0
 11
171.1237658743
 21
156.405851266
 31
0.0
  0
ARC
  5
2DE
330
1F
100
AcDbEntity
  8
0
  6
Continuous
 62
     7
370
    15
100
AcDbCircle
 10
169.9986308743
 20
156.5658515252
 30
0.0
 40
0.1600002592574583
100
AcDbArc
 50
208.5608745938
 51
270.0
  0
LINE
  5
2DF
330
1F
100
AcDbEntity
  8
0
  6
Continuous
 62
     7
370
    15
100
AcDbLine
 10
169.673027102
 20
156.8293566492
 30
0.0
 11
169.858101102
 21
156.4893566492
 31
0.0
  0
ARC
  5
2E0
330
1F
100
AcDbEntity
  8
0
  6
Continuous
 62
     7
370
    15
100
AcDbCircle
 10
169.813556102
 20
156.9058516492
 30
0.0
 40
0.1599996402058195
100
AcDbArc
 50
151.4389542016
 51
208.5610457984
  0
LINE
  5
2E1
330
1F
100
AcDbEntity
  8
0
  6
Continuous
 62
     7
370
    15
100
AcDbLine
 10
169.903556102
 20
157.4058516492
 30
0.0
 11
169.673027102
 21
156.9823466492
 31
0.0
  0
LINE
  5
2E2
330
1F
100
AcDbEntity
  8
0
  6
Continuous
 62
     7
370
    15
100
AcDbLine
 10
169.673027102
 20
157.8293566492
 30
0.0
 11
169.903556102
 21
157.4058516492
 31
0.0
  0
ARC
  5
2E3
330
1F
100
AcDbEntity
  8
0
  6
Continuous
 62
     7
370
    15
100
AcDbCircle
 10
169.813556102
 20
157.9058516492
 30
0.0
 40
0.1599996402058195
100
AcDbArc
 50
151.4389542016
 51
208.5610457984
  0
LINE
  5
2E4
330
1F
100
AcDbEntity
  8
0
  6
Continuous
 62
     7
370
    15
100
AcDbLine
 10
169.903556102
 20
158.4058516492
 30
0.0
 11
169.673027102
 21
157.9823466492
 31
0.0
  0
LINE
  5
2E5
330
1F
100
AcDbEntity
  8
0
  6
Continuous
 62
     7
370
    15
100
AcDbLine
 10
169.6730268383
 20
158.829356381
 30
0.0
 11
169.903556102
 21
158.4058516492
 31
0.0
  0
ARC
  5
2E6
330
1F
100
AcDbEntity
  8
0
  6
Continuous
 62
     7
370
    15
100
AcDbCircle
 10
169.813555944
 20
158.9058515631
 30
0.0
 40
0.1599998201029116
100
AcDbArc
 50
151.4389542016
 51
208.561085
  0
LINE
  5
2E7
330
1F
100
AcDbEntity
  8
0
  6
Continuous
 62
     7
370
    15
100
AcDbLine
 10
169.903555786
 20
159.4058516492
 30
0.0
 11
169.673026786
 21
158.9823466492
 31
0.0
  0
LINE
  5
2E8
330
1F
100
AcDbEntity
  8
0
  6
Continuous
 62
     7
370
    15
100
AcDbLine
 10
169.6730265223
 20
159.829356381
 30
0.0
 11
169.903555786
 21
159.4058516492
 31
0.0
  0
ARC
  5
2E9
330
1F
100
AcDbEntity
  8
0
  6
Continuous
 62
     7
370
    15
100
AcDbCircle
 10
169.813555786
 20
159.9058516492
 30
0.0
 40
0.1600000000000289
100
AcDbArc
 50
180.0
 51
208.561085
  0
LINE
  5
2EA
330
1F
100
AcDbEntity
  8
0
  6
Continuous
 62
     7
370
    15
100
AcDbLine
 10
169.653555786
 20
160.4058516492
 30
0.0
 11
169.653555786
 21
159.9058516492
 31
0.0
  0
LINE
  5
2EB
330
1F
100
AcDbEntity
  8
0
  6
Continuous
 62
     7
370
    15
100
AcDbLine
 10
163.653555786
 20
160.4058516492
 30
0.0
 11
169.653555786
 21
160.4058516492
 31
0.0
  0
LINE
  5
2EC
330
1F
100
AcDbEntity
  8
0
  6
Continuous
 62
     7
370
    15
100
AcDbLine
 10
163.653555786
 20
159.9058516492
 30
0.0
 11
163.653555786
 21
160.4058516492
 31
0.0
  0
ARC
  5
2ED
330
1F
100
AcDbEntity
  8
0
  6
Continuous
 62
     7
370
    15
100
AcDbCircle
 10
163.4935559659
 20
159.9058516492
 30
0.0
 40
0.159999820102948
100
AcDbArc
 50
331.4389542016
 51
0.0
  0
LINE
  5
2EE
330
1F
100
AcDbEntity
  8
0
  6
Continuous
 62
     7
370
    15
100
AcDbLine
 10
163.4035561239
 20
159.4058515631
 30
0.0
 11
163.6340851239
 21
159.8293565631
 31
0.0
  0
LINE
  5
2EF
330
1F
100
AcDbEntity
  8
0
  6
Continuous
 62
     7
370
    15
100
AcDbLine
 10
163.6340853876
 20
158.9823468313
 30
0.0
 11
163.4035561239
 21
159.4058515631
 31
0.0
  0
ARC
  5
2F0
330
1F
100
AcDbEntity
  8
0
  6
Continuous
 62
     7
370
    15
100
AcDbCircle
 10
163.4935562819
 20
158.9058516492
 30
0.0
 40
0.1599998201029366
100
AcDbArc
 50
331.4389542016
 51
28.561085
  0
LINE
  5
2F1
330
1F
100
AcDbEntity
  8
0
  6
Continuous
 62
     7
370
    15
100
AcDbLine
 10
163.4035564399
 20
158.4058515631
 30
0.0
 11
163.6340854399
 21
158.8293565631
 31
0.0
  0
LINE
  5
2F2
330
1F
100
AcDbEntity
  8
0
  6
Continuous
 62
     7
370
    15
100
AcDbLine
 10
163.6340857036
 20
157.9823468313
 30
0.0
 11
163.4035564399
 21
158.4058515631
 31
0.0
  0
ARC
  5
2F3
330
1F
100
AcDbEntity
  8
0
  6
Continuous
 62
     7
370
    15
100
AcDbCircle
 10
163.4935564399
 20
157.9058515631
 30
0.0
 40
0.1600000000000175
100
AcDbArc
 50
331.438915
 51
28.561085
  0
LINE
  5
2F4
330
1F
100
AcDbEntity
  8
0
  6
Continuous
 62
     7
370
    15
100
AcDbLine
 10
163.4035564399
 20
157.4058515631
 30
0.0
 11
163.6340857036
 21
157.829356295
 31
0.0
  0
LINE
  5
2F5
330
1F
100
AcDbEntity
  8
0
  6
Continuous
 62
     7
370
    15
100
AcDbLine
 10
163.6340857036
 20
156.9823468313
 30
0.0
 11
163.4035564399
 21
157.4058515631
 31
0.0
  0
ARC
  5
2F6
330
1F
100
AcDbEntity
  8
0
  6
Continuous
 62
     7
370
    15
100
AcDbCircle
 10
163.4935564399
 20
156.9058515631
 30
0.0
 40
0.1600000000000289
100
AcDbArc
 50
331.438915
 51
28.561085
  0
LINE
  5
2F7
330
1F
100
AcDbEntity
  8
0
  6
Continuous
 62
     7
370
    15
100
AcDbLine
 10
163.4490114399
 20
156.4893565631
 30
0.0
 11
163.6340857036
 21
156.829356295
 31
0.0
  0
ARC
  5
2F8
330
1F
100
AcDbEntity
  8
0
  6
Continuous
 62
     7
370
    15
100
AcDbCircle
 10
163.3084816676
 20
156.5658514392
 30
0.0
 40
0.1600002592574343
100
AcDbArc
 50
270.0
 51
331.4391254062
  0
LINE
  5
2F9
330
1F
100
AcDbEntity
  8
0
  6
Continuous
 62
     7
370
    15
100
AcDbLine
 10
162.1833466676
 20
156.4058511799
 30
0.0
 11
163.3084816676
 21
156.4058511799
 31
0.0
  0
ARC
  5
2FA
330
1F
100
AcDbEntity
  8
0
  6
Continuous
 62
     7
370
    15
100
AcDbCircle
 10
162.1833466676
 20
156.5658511799
 30
0.0
 40
0.1600000000000308
100
AcDbArc
 50
191.903092
 51
270.0
  0
LINE
  5
2FB
330
1F
100
AcDbEntity
  8
0
  6
Continuous
 62
     7
370
    15
100
AcDbLine
 10
161.3492566676
 20
159.7471021799
 30
0.0
 11
162.0267870107
 21
156.5328500614
 31
0.0
  0
ARC
  5
2FC
330
1F
100
AcDbEntity
  8
0
  6
Continuous
 62
     7
370
    15
100
AcDbCircle
 10
161.1535566676
 20
159.7058511799
 30
0.0
 40
0.2000003375022011
100
AcDbArc
 50
11.9029550427
 51
168.0970449573
  0
LINE
  5
2FD
330
1F
100
AcDbEntity
  8
0
  6
Continuous
 62
     7
370
    15
100
AcDbLine
 10
160.2803263245
 20
156.5328500614
 30
0.0
 11
160.9578566676
 21
159.7471021799
 31
0.0
  0
LINE
  5
2FE
330
1F
100
AcDbEntity
  8
0
  6
Continuous
 62
     7
370
    15
100
AcDbLine
 10
149.2803276132
 20
156.5328504537
 30
0.0
 11
149.9578580421
 21
159.7471028519
 31
0.0
  0
ARC
  5
2FF
330
1F
100
AcDbEntity
  8
0
  6
Continuous
 62
     7
370
    15
100
AcDbCircle
 10
149.1237677655
 20
156.5658514216
 30
0.0
 40
0.1600001556264203
100
AcDbArc
 50
270.0
 51
348.0969748776
  0
LINE
  5
300
330
1F
100
AcDbEntity
  8
0
  6
Continuous
 62
     7
370
    15
100
AcDbLine
 10
147.9986327655
 20
156.405851266
 30
0.0
 11
149.1237677655
 21
156.405851266
 31
0.0
  0
ARC
  5
301
330
1F
100
AcDbEntity
  8
0
  6
Continuous
 62
     7
370
    15
100
AcDbCircle
 10
147.9986327655
 20
156.5658515252
 30
0.0
 40
0.1600002592574093
100
AcDbArc
 50
208.5608745938
 51
270.0
  0
LINE
  5
302
330
1F
100
AcDbEntity
  8
0
  6
Continuous
 62
     7
370
    15
100
AcDbLine
 10
147.6730289932
 20
156.8293566492
 30
0.0
 11
147.8581029932
 21
156.4893566492
 31
0.0
  0
ARC
  5
303
330
1F
100
AcDbEntity
  8
0
  6
Continuous
 62
     7
370
    15
100
AcDbCircle
 10
147.8135579932
 20
156.9058516492
 30
0.0
 40
0.1599996402058331
100
AcDbArc
 50
151.4389542016
 51
208.5610457984
  0
LINE
  5
304
330
1F
100
AcDbEntity
  8
0
  6
Continuous
 62
     7
370
    15
100
AcDbLine
 10
147.9035579932
 20
157.4058516492
 30
0.0
 11
147.6730289932
 21
156.9823466492
 31
0.0
  0
LINE
  5
305
330
1F
100
AcDbEntity
  8
0
  6
Continuous
 62
     7
370
    15
100
AcDbLine
 10
147.6730289932
 20
157.8293566492
 30
0.0
 11
147.9035579932
 21
157.4058516492
 31
0.0
  0
ARC
  5
306
330
1F
100
AcDbEntity
  8
0
  6
Continuous
 62
     7
370
    15
100
AcDbCircle
 10
147.8135579932
 20
157.9058516492
 30
0.0
 40
0.1599996402058445
100
AcDbArc
 50
151.4389542016
 51
208.5610457984
  0
LINE
  5
307
330
1F
100
AcDbEntity
  8
0
  6
Continuous
 62
     7
370
    15
100
AcDbLine
 10
147.9035579932
 20
158.4058516492
 30
0.0
 11
147.6730289932
 21
157.9823466492
 31
0.0
  0
LINE
  5
308
330
1F
100
AcDbEntity
  8
0
  6
Continuous
 62
     7
370
    15
100
AcDbLine
 10
147.6730287295
 20
158.829356381
 30
0.0
 11
147.9035579932
 21
158.4058516492
 31
0.0
  0
ARC
  5
309
330
1F
100
AcDbEntity
  8
0
  6
Continuous
 62
     7
370
    15
100
AcDbCircle
 10
147.8135578352
 20
158.9058515631
 30
0.0
 40
0.1599998201029116
100
AcDbArc
 50
151.4389542016
 51
208.561085
  0
LINE
  5
30A
330
1F
100
AcDbEntity
  8
0
  6
Continuous
 62
     7
370
    15
100
AcDbLine
 10
147.9035576772
 20
159.4058516492
 30
0.0
 11
147.6730286772
 21
158.9823466492
 31
0.0
  0
LINE
  5
30B
330
1F
100
AcDbEntity
  8
0
  6
Continuous
 62
     7
370
    15
100
AcDbLine
 10
147.6730284135
 20
159.829356381
 30
0.0
 11
147.9035576772
 21
159.4058516492
 31
0.0
  0
ARC
  5
30C
330
1F
100
AcDbEntity
  8
0
  6
Continuous
 62
     7
370
    15
100
AcDbCircle
 10
147.8135576772
 20
159.9058516492
 30
0.0
 40
0.1600000000000289
100
AcDbArc
 50
180.0
 51
208.561085
  0
LINE
  5
30D
330
1F
100
AcDbEntity
  8
0
  6
Continuous
 62
     7
370
    15
100
AcDbLine
 10
147.6535576772
 20
160.4058516492
 30
0.0
 11
147.6535576772
 21
159.9058516492
 31
0.0
  0
LINE
  5
30E
330
1F
100
AcDbEntity
  8
0
  6
Continuous
 62
     7
370
    15
100
AcDbLine
 10
141.6535576772
 20
160.4058516492
 30
0.0
 11
147.6535576772
 21
160.4058516492
 31
0.0
  0
LINE
  5
30F
330
1F
100
AcDbEntity
  8
0
  6
Continuous
 62
     7
370
    15
100
AcDbLine
 10
141.6535576772
 20
159.9058516492
 30
0.0
 11
141.6535576772
 21
160.4058516492
 31
0.0
  0
ARC
  5
310
330
1F
100
AcDbEntity
  8
0
  6
Continuous
 62
     7
370
    15
100
AcDbCircle
 10
141.4935578571
 20
159.9058516492
 30
0.0
 40
0.1599998201029393
100
AcDbArc
 50
331.4389542016
 51
0.0
  0
LINE
  5
311
330
1F
100
AcDbEntity
  8
0
  6
Continuous
 62
     7
370
    15
100
AcDbLine
 10
141.4035580151
 20
159.4058515631
 30
0.0
 11
141.6340870151
 21
159.8293565631
 31
0.0
  0
LINE
  5
312
330
1F
100
AcDbEntity
  8
0
  6
Continuous
 62
     7
370
    15
100
AcDbLine
 10
141.6340872788
 20
158.9823468313
 30
0.0
 11
141.4035580151
 21
159.4058515631
 31
0.0
  0
ARC
  5
313
330
1F
100
AcDbEntity
  8
0
  6
Continuous
 62
     7
370
    15
100
AcDbCircle
 10
141.4935581731
 20
158.9058516492
 30
0.0
 40
0.1599998201029709
100
AcDbArc
 50
331.4389542016
 51
28.561085
  0
LINE
  5
314
330
1F
100
AcDbEntity
  8
0
  6
Continuous
 62
     7
370
    15
100
AcDbLine
 10
141.4035583311
 20
158.4058515632
 30
0.0
 11
141.6340873311
 21
158.8293565631
 31
0.0
  0
LINE
  5
315
330
1F
100
AcDbEntity
  8
0
  6
Continuous
 62
     7
370
    15
100
AcDbLine
 10
141.6340875948
 20
157.9823468313
 30
0.0
 11
141.4035583311
 21
158.4058515632
 31
0.0
  0
ARC
  5
316
330
1F
100
AcDbEntity
  8
0
  6
Continuous
 62
     7
370
    15
100
AcDbCircle
 10
141.4935583311
 20
157.9058515632
 30
0.0
 40
0.1600000000000039
100
AcDbArc
 50
331.438915
 51
28.561085
  0
LINE
  5
317
330
1F
100
AcDbEntity
  8
0
  6
Continuous
 62
     7
370
    15
100
AcDbLine
 10
141.4035583311
 20
157.4058515632
 30
0.0
 11
141.6340875948
 21
157.829356295
 31
0.0
  0
LINE
  5
318
330
1F
100
AcDbEntity
  8
0
  6
Continuous
 62
     7
370
    15
100
AcDbLine
 10
141.6340875948
 20
156.9823468313
 30
0.0
 11
141.4035583311
 21
157.4058515632
 31
0.0
  0
ARC
  5
319
330
1F
100
AcDbEntity
  8
0
  6
Continuous
 62
     7
370
    15
100
AcDbCircle
 10
141.4935583311
 20
156.9058515632
 30
0.0
 40
0.1600000000000175
100
AcDbArc
 50
331.438915
 51
28.561085
  0
LINE
  5
31A
330
1F
100
AcDbEntity
  8
0
  6
Continuous
 62
     7
370
    15
100
AcDbLine
 10
141.4490133311
 20
156.4893565632
 30
0.0
 11
141.6340875948
 21
156.829356295
 31
0.0
  0
ARC
  5
31B
330
1F
100
AcDbEntity
  8
0
  6
Continuous
 62
     7
370
    15
100
AcDbCircle
 10
141.3084835588
 20
156.5658514392
 30
0.0
 40
0.1600002592574343
100
AcDbArc
 50
270.0
 51
331.4391254062
  0
LINE
  5
31C
330
1F
100
AcDbEntity
  8
0
  6
Continuous
 62
     7
370
    15
100
AcDbLine
 10
140.1833485588
 20
156.4058511799
 30
0.0
 11
141.3084835588
 21
156.4058511799
 31
0.0
  0
ARC
  5
31D
330
1F
100
AcDbEntity
  8
0
  6
Continuous
 62
     7
370
    15
100
AcDbCircle
 10
140.1833485588
 20
156.5658511799
 30
0.0
 40
0.1600000000000029
100
AcDbArc
 50
191.903092
 51
270.0
  0
LINE
  5
31E
330
1F
100
AcDbEntity
  8
0
  6
Continuous
 62
     7
370
    15
100
AcDbLine
 10
139.3492585588
 20
159.7471021799
 30
0.0
 11
140.0267889019
 21
156.5328500614
 31
0.0
  0
ARC
  5
31F
330
1F
100
AcDbEntity
  8
0
  6
Continuous
 62
     7
370
    15
100
AcDbCircle
 10
139.1535585588
 20
159.7058511799
 30
0.0
 40
0.2000003375022069
100
AcDbArc
 50
11.9029550427
 51
168.0970449573
  0
LINE
  5
320
330
1F
100
AcDbEntity
  8
0
  6
Continuous
 62
     7
370
    15
100
AcDbLine
 10
138.2803282157
 20
156.5328500614
 30
0.0
 11
138.9578585588
 21
159.7471021799
 31
0.0
  0
ARC
  5
321
330
1F
100
AcDbEntity
  8
0
  6
Continuous
 62
     7
370
    15
100
AcDbCircle
 10
138.1237685588
 20
156.5658511799
 30
0.0
 40
0.1600000000000029
100
AcDbArc
 50
270.0
 51
348.096908
  0
LINE
  5
322
330
1F
100
AcDbEntity
  8
0
  6
Continuous
 62
     7
370
    15
100
AcDbLine
 10
136.9986335588
 20
156.4058511799
 30
0.0
 11
138.1237685588
 21
156.4058511799
 31
0.0
  0
ARC
  5
323
330
1F
100
AcDbEntity
  8
0
  6
Continuous
 62
     7
370
    15
100
AcDbCircle
 10
136.9986335588
 20
156.5658514392
 30
0.0
 40
0.1600002592574093
100
AcDbArc
 50
208.5608745938
 51
270.0
  0
LINE
  5
324
330
1F
100
AcDbEntity
  8
0
  6
Continuous
 62
     7
370
    15
100
AcDbLine
 10
136.6730295228
 20
156.829356295
 30
0.0
 11
136.8581037865
 21
156.4893565632
 31
0.0
  0
ARC
  5
325
330
1F
100
AcDbEntity
  8
0
  6
Continuous
 62
     7
370
    15
100
AcDbCircle
 10
136.8135587865
 20
156.9058515632
 30
0.0
 40
0.1600000000000289
100
AcDbArc
 50
151.438915
 51
208.561085
  0
LINE
  5
326
330
1F
100
AcDbEntity
  8
0
  6
Continuous
 62
     7
370
    15
100
AcDbLine
 10
136.9035587865
 20
157.4058515632
 30
0.0
 11
136.6730295228
 21
156.9823468313
 31
0.0
  0
LINE
  5
327
330
1F
100
AcDbEntity
  8
0
  6
Continuous
 62
     7
370
    15
100
AcDbLine
 10
136.6730295228
 20
157.829356295
 30
0.0
 11
136.9035587865
 21
157.4058515632
 31
0.0
  0
ARC
  5
328
330
1F
100
AcDbEntity
  8
0
  6
Continuous
 62
     7
370
    15
100
AcDbCircle
 10
136.8135587865
 20
157.9058515632
 30
0.0
 40
0.1600000000000175
100
AcDbArc
 50
151.438915
 51
208.561085
  0
LINE
  5
329
330
1F
100
AcDbEntity
  8
0
  6
Continuous
 62
     7
370
    15
100
AcDbLine
 10
136.9035587865
 20
158.4058515632
 30
0.0
 11
136.6730295228
 21
157.9823468313
 31
0.0
  0
LINE
  5
32A
330
1F
100
AcDbEntity
  8
0
  6
Continuous
 62
     7
370
    15
100
AcDbLine
 10
136.6730297865
 20
158.8293565632
 30
0.0
 11
136.9035587865
 21
158.4058515632
 31
0.0
  0
ARC
  5
32B
330
1F
100
AcDbEntity
  8
0
  6
Continuous
 62
     7
370
    15
100
AcDbCircle
 10
136.8135589445
 20
158.9058516492
 30
0.0
 40
0.1599998201029116
100
AcDbArc
 50
151.438915
 51
208.5610457984
  0
LINE
  5
32C
330
1F
100
AcDbEntity
  8
0
  6
Continuous
 62
     7
370
    15
100
AcDbLine
 10
136.9035591025
 20
159.4058515631
 30
0.0
 11
136.6730298389
 21
158.9823468313
 31
0.0
  0
LINE
  5
32D
330
1F
100
AcDbEntity
  8
0
  6
Continuous
 62
     7
370
    15
100
AcDbLine
 10
136.6730301025
 20
159.8293565631
 30
0.0
 11
136.9035591025
 21
159.4058515631
 31
0.0
  0
ARC
  5
32E
330
1F
100
AcDbEntity
  8
0
  6
Continuous
 62
     7
370
    15
100
AcDbCircle
 10
136.8135592605
 20
159.9058516492
 30
0.0
 40
0.1599998201028731
100
AcDbArc
 50
180.0
 51
208.5610457984
  0
LINE
  5
32F
330
1F
100
AcDbEntity
  8
0
  6
Continuous
 62
     7
370
    15
100
AcDbLine
 10
136.6535594404
 20
160.4058516492
 30
0.0
 11
136.6535594404
 21
159.9058516492
 31
0.0
  0
LINE
  5
330
330
1F
100
AcDbEntity
  8
0
  6
Continuous
 62
     7
370
    15
100
AcDbLine
 10
130.6535594404
 20
160.4058516492
 30
0.0
 11
136.6535594404
 21
160.4058516492
 31
0.0
  0
LINE
  5
331
330
1F
100
AcDbEntity
  8
0
  6
Continuous
 62
     7
370
    15
100
AcDbLine
 10
130.6535594404
 20
159.9058516492
 30
0.0
 11
130.6535594404
 21
160.4058516492
 31
0.0
  0
ARC
  5
332
330
1F
100
AcDbEntity
  8
0
  6
Continuous
 62
     7
370
    15
100
AcDbCircle
 10
130.4935594404
 20
159.9058516492
 30
0.0
 40
0.1600000000000039
100
AcDbArc
 50
331.438915
 51
0.0
  0
LINE
  5
333
330
1F
100
AcDbEntity
  8
0
  6
Continuous
 62
     7
370
    15
100
AcDbLine
 10
130.4035594404
 20
159.4058516492
 30
0.0
 11
130.6340887041
 21
159.829356381
 31
0.0
  0
LINE
  5
334
330
1F
100
AcDbEntity
  8
0
  6
Continuous
 62
     7
370
    15
100
AcDbLine
 10
130.6340884404
 20
158.9823466492
 30
0.0
 11
130.4035594404
 21
159.4058516492
 31
0.0
  0
ARC
  5
335
330
1F
100
AcDbEntity
  8
0
  6
Continuous
 62
     7
370
    15
100
AcDbCircle
 10
130.4935592824
 20
158.9058515632
 30
0.0
 40
0.1599998201029616
100
AcDbArc
 50
331.438915
 51
28.5610457984
  0
LINE
  5
336
330
1F
100
AcDbEntity
  8
0
  6
Continuous
 62
     7
370
    15
100
AcDbLine
 10
130.4035591244
 20
158.4058516492
 30
0.0
 11
130.6340883881
 21
158.829356381
 31
0.0
  0
LINE
  5
337
330
1F
100
AcDbEntity
  8
0
  6
Continuous
 62
     7
370
    15
100
AcDbLine
 10
130.6340881244
 20
157.9823466492
 30
0.0
 11
130.4035591244
 21
158.4058516492
 31
0.0
  0
ARC
  5
338
330
1F
100
AcDbEntity
  8
0
  6
Continuous
 62
     7
370
    15
100
AcDbCircle
 10
130.4935591244
 20
157.9058516492
 30
0.0
 40
0.159999640205908
100
AcDbArc
 50
331.4389542016
 51
28.5610457983
  0
LINE
  5
339
330
1F
100
AcDbEntity
  8
0
  6
Continuous
 62
     7
370
    15
100
AcDbLine
 10
130.4035591244
 20
157.4058516492
 30
0.0
 11
130.6340881244
 21
157.8293566492
 31
0.0
  0
LINE
  5
33A
330
1F
100
AcDbEntity
  8
0
  6
Continuous
 62
     7
370
    15
100
AcDbLine
 10
130.6340881244
 20
156.9823466492
 30
0.0
 11
130.4035591244
 21
157.4058516492
 31
0.0
  0
ARC
  5
33B
330
1F
100
AcDbEntity
  8
0
  6
Continuous
 62
     7
370
    15
100
AcDbCircle
 10
130.4935591244
 20
156.9058516492
 30
0.0
 40
0.159999640205908
100
AcDbArc
 50
331.4389542016
 51
28.5610457984
  0
LINE
  5
33C
330
1F
100
AcDbEntity
  8
0
  6
Continuous
 62
     7
370
    15
100
AcDbLine
 10
130.4490133881
 20
156.489356381
 30
0.0
 11
130.6340881244
 21
156.8293566492
 31
0.0
  0
ARC
  5
33D
330
1F
100
AcDbEntity
  8
0
  6
Continuous
 62
     7
370
    15
100
AcDbCircle
 10
130.3084841244
 20
156.5658516492
 30
0.0
 40
0.160000000000025
100
AcDbArc
 50
270.0
 51
331.438915
  0
LINE
  5
33E
330
1F
100
AcDbEntity
  8
0
  6
Continuous
 62
     7
370
    15
100
AcDbLine
 10
129.1833491244
 20
156.4058516492
 30
0.0
 11
130.3084841244
 21
156.4058516492
 31
0.0
  0
ARC
  5
33F
330
1F
100
AcDbEntity
  8
0
  6
Continuous
 62
     7
370
    15
100
AcDbCircle
 10
129.1833491244
 20
156.5658518048
 30
0.0
 40
0.1600001556264432
100
AcDbArc
 50
191.9030251224
 51
270.0
  0
LINE
  5
340
330
1F
100
AcDbEntity
  8
0
  6
Continuous
 62
     7
370
    15
100
AcDbLine
 10
128.3492588478
 20
159.7471032351
 30
0.0
 11
129.0267892767
 21
156.5328508369
 31
0.0
  0
ARC
  5
341
330
1F
100
AcDbEntity
  8
0
  6
Continuous
 62
     7
370
    15
100
AcDbCircle
 10
128.1535592767
 20
159.7058518369
 30
0.0
 40
0.2000000000000285
100
AcDbArc
 50
11.903092
 51
168.096908
  0
LINE
  5
342
330
1F
100
AcDbEntity
  8
0
  6
Continuous
 62
     7
370
    15
100
AcDbLine
 10
127.2803292767
 20
156.5328508369
 30
0.0
 11
127.9578597055
 21
159.7471032351
 31
0.0
  0
LINE
  5
343
330
1F
100
AcDbEntity
  8
0
  6
Continuous
 62
     7
370
    15
100
AcDbLine
 10
92.6730314836
 20
156.829356295
 30
0.0
 11
92.8581064836
 21
156.489356295
 31
0.0
  0
ARC
  5
344
330
1F
100
AcDbEntity
  8
0
  6
Continuous
 62
     7
370
    15
100
AcDbCircle
 10
92.8135607472
 20
156.9058515632
 30
0.0
 40
0.1600000000000175
100
AcDbArc
 50
151.438915
 51
208.561085
  0
LINE
  5
345
330
1F
100
AcDbEntity
  8
0
  6
Continuous
 62
     7
370
    15
100
AcDbLine
 10
92.9035607472
 20
157.4058515632
 30
0.0
 11
92.6730314836
 21
156.9823468313
 31
0.0
  0
LINE
  5
346
330
1F
100
AcDbEntity
  8
0
  6
Continuous
 62
     7
370
    15
100
AcDbLine
 10
92.6730314836
 20
157.829356295
 30
0.0
 11
92.9035607472
 21
157.4058515632
 31
0.0
  0
ARC
  5
347
330
1F
100
AcDbEntity
  8
0
  6
Continuous
 62
     7
370
    15
100
AcDbCircle
 10
92.8135607472
 20
157.9058515632
 30
0.0
 40
0.1600000000000175
100
AcDbArc
 50
151.438915
 51
208.561085
  0
LINE
  5
348
330
1F
100
AcDbEntity
  8
0
  6
Continuous
 62
     7
370
    15
100
AcDbLine
 10
92.9035607472
 20
158.4058515632
 30
0.0
 11
92.6730314836
 21
157.9823468313
 31
0.0
  0
LINE
  5
349
330
1F
100
AcDbEntity
  8
0
  6
Continuous
 62
     7
370
    15
100
AcDbLine
 10
92.6730317472
 20
158.8293565632
 30
0.0
 11
92.9035607472
 21
158.4058515632
 31
0.0
  0
ARC
  5
34A
330
1F
100
AcDbEntity
  8
0
  6
Continuous
 62
     7
370
    15
100
AcDbCircle
 10
92.8135609053
 20
158.9058516492
 30
0.0
 40
0.1599998201029449
100
AcDbArc
 50
151.438915
 51
208.5610457984
  0
LINE
  5
34B
330
1F
100
AcDbEntity
  8
0
  6
Continuous
 62
     7
370
    15
100
AcDbLine
 10
92.9035610633
 20
159.4058515632
 30
0.0
 11
92.6730317996
 21
158.9823468313
 31
0.0
  0
LINE
  5
34C
330
1F
100
AcDbEntity
  8
0
  6
Continuous
 62
     7
370
    15
100
AcDbLine
 10
92.6730320633
 20
159.8293565632
 30
0.0
 11
92.9035610633
 21
159.4058515632
 31
0.0
  0
ARC
  5
34D
330
1F
100
AcDbEntity
  8
0
  6
Continuous
 62
     7
370
    15
100
AcDbCircle
 10
92.8135612213
 20
159.9058516492
 30
0.0
 40
0.1599998201029105
100
AcDbArc
 50
180.0
 51
208.5610457984
  0
LINE
  5
34E
330
1F
100
AcDbEntity
  8
0
  6
Continuous
 62
     7
370
    15
100
AcDbLine
 10
92.6535614012
 20
160.4058516492
 30
0.0
 11
92.6535614012
 21
159.9058516492
 31
0.0
  0
LINE
  5
34F
330
1F
100
AcDbEntity
  8
0
  6
Continuous
 62
     7
370
    15
100
AcDbLine
 10
86.6535530939
 20
160.4058516492
 30
0.0
 11
92.6535614012
 21
160.4058516492
 31
0.0
  0
LINE
  5
350
330
1F
100
AcDbEntity
  8
0
  6
Continuous
 62
     7
370
    15
100
AcDbLine
 10
86.6535530939
 20
159.905852601
 30
0.0
 11
86.6535530939
 21
160.4058516492
 31
0.0
  0
ARC
  5
351
330
1F
100
AcDbEntity
  8
0
  6
Continuous
 62
     7
370
    15
100
AcDbCircle
 10
86.4935530939
 20
159.905852601
 30
0.0
 40
0.1599999999999824
100
AcDbArc
 50
331.438915
 51
0.0
  0
LINE
  5
352
330
1F
100
AcDbEntity
  8
0
  6
Continuous
 62
     7
370
    15
100
AcDbLine
 10
86.4035530939
 20
159.405852601
 30
0.0
 11
86.6340823575
 21
159.8293573328
 31
0.0
  0
LINE
  5
353
330
1F
100
AcDbEntity
  8
0
  6
Continuous
 62
     7
370
    15
100
AcDbLine
 10
86.6340820939
 20
158.982347601
 30
0.0
 11
86.4035530939
 21
159.405852601
 31
0.0
  0
ARC
  5
354
330
1F
100
AcDbEntity
  8
0
  6
Continuous
 62
     7
370
    15
100
AcDbCircle
 10
86.4935529359
 20
158.905852515
 30
0.0
 40
0.1599998201029116
100
AcDbArc
 50
331.438915
 51
28.5610457984
  0
LINE
  5
355
330
1F
100
AcDbEntity
  8
0
  6
Continuous
 62
     7
370
    15
100
AcDbLine
 10
86.4035527779
 20
158.405852601
 30
0.0
 11
86.6340820415
 21
158.8293573328
 31
0.0
  0
LINE
  5
356
330
1F
100
AcDbEntity
  8
0
  6
Continuous
 62
     7
370
    15
100
AcDbLine
 10
86.6340817779
 20
157.982347601
 30
0.0
 11
86.4035527779
 21
158.405852601
 31
0.0
  0
ARC
  5
357
330
1F
100
AcDbEntity
  8
0
  6
Continuous
 62
     7
370
    15
100
AcDbCircle
 10
86.4935527779
 20
157.905852601
 30
0.0
 40
0.1599996402058071
100
AcDbArc
 50
331.4389542016
 51
28.5610457984
  0
LINE
  5
358
330
1F
100
AcDbEntity
  8
0
  6
Continuous
 62
     7
370
    15
100
AcDbLine
 10
86.4035527779
 20
157.405852601
 30
0.0
 11
86.6340817779
 21
157.829357601
 31
0.0
  0
LINE
  5
359
330
1F
100
AcDbEntity
  8
0
  6
Continuous
 62
     7
370
    15
100
AcDbLine
 10
86.6340817779
 20
156.982347601
 30
0.0
 11
86.4035527779
 21
157.405852601
 31
0.0
  0
ARC
  5
35A
330
1F
100
AcDbEntity
  8
0
  6
Continuous
 62
     7
370
    15
100
AcDbCircle
 10
86.4935527779
 20
156.905852601
 30
0.0
 40
0.1599996402058071
100
AcDbArc
 50
331.4389542016
 51
28.5610457984
  0
LINE
  5
35B
330
1F
100
AcDbEntity
  8
0
  6
Continuous
 62
     7
370
    15
100
AcDbLine
 10
86.4490070415
 20
156.4893573328
 30
0.0
 11
86.6340817779
 21
156.829357601
 31
0.0
  0
ARC
  5
35C
330
1F
100
AcDbEntity
  8
0
  6
Continuous
 62
     7
370
    15
100
AcDbCircle
 10
86.3084777779
 20
156.565852601
 30
0.0
 40
0.160000000000081
100
AcDbArc
 50
270.0
 51
331.438915
  0
LINE
  5
35D
330
1F
100
AcDbEntity
  8
0
  6
Continuous
 62
     7
370
    15
100
AcDbLine
 10
80.1051947779
 20
156.405852601
 30
0.0
 11
86.3084777779
 21
156.405852601
 31
0.0
  0
ARC
  5
35E
330
1F
100
AcDbEntity
  8
0
  6
Continuous
 62
     7
370
    15
100
AcDbCircle
 10
80.1051947779
 20
155.905852601
 30
0.0
 40
0.5000000000000058
100
AcDbArc
 50
90.0
 51
179.38394
  0
LINE
  5
35F
330
1F
100
AcDbEntity
  8
0
  6
Continuous
 62
     7
370
    15
100
AcDbLine
 10
79.5768106804
 20
153.2688166351
 30
0.0
 11
79.6052236804
 21
155.9112286351
 31
0.0
  0
ARC
  5
360
330
1F
100
AcDbEntity
  8
0
  6
Continuous
 62
     7
370
    15
100
AcDbCircle
 10
80.0767817779
 20
153.263440601
 30
0.0
 40
0.5000000000000054
100
AcDbArc
 50
179.38394
 51
264.982228
  0
LINE
  5
361
330
1F
100
AcDbEntity
  8
0
  6
Continuous
 62
     7
370
    15
100
AcDbLine
 10
116.2803294238
 20
156.5328504446
 30
0.0
 11
116.9578597669
 21
159.7471025632
 31
0.0
  0
LINE
  5
362
330
1F
100
AcDbEntity
  8
0
  6
Continuous
 62
     7
370
    15
100
AcDbLine
 10
94.2803304042
 20
156.5328504446
 30
0.0
 11
94.9578607472
 21
159.7471025632
 31
0.0
  0
ARC
  5
363
330
1F
100
AcDbEntity
  8
0
  6
Continuous
 62
     7
370
    15
100
AcDbCircle
 10
94.1237707472
 20
156.5658515632
 30
0.0
 40
0.1600000000000029
100
AcDbArc
 50
270.0
 51
348.096908
  0
LINE
  5
364
330
1F
100
AcDbEntity
  8
0
  6
Continuous
 62
     7
370
    15
100
AcDbLine
 10
92.9986357472
 20
156.4058515632
 30
0.0
 11
94.1237707472
 21
156.4058515632
 31
0.0
  0
LINE
  5
365
330
1F
100
AcDbEntity
  8
0
  6
Continuous
 62
     7
370
    15
100
AcDbLine
 10
105.2803302571
 20
156.5328508369
 30
0.0
 11
105.9578606859
 21
159.7471032351
 31
0.0
  0
ARC
  5
366
330
1F
100
AcDbEntity
  8
0
  6
Continuous
 62
     7
370
    15
100
AcDbCircle
 10
92.9986357472
 20
156.5658515632
 30
0.0
 40
0.1600000000000039
100
AcDbArc
 50
208.561085
 51
270.0
  0
DIMENSION
  5
367
330
1F
100
AcDbEntity
  8
0
  6
Continuous
 62
     7
370
     0
100
AcDbDimension
  2
*D1
 10
193.6535520231
 20
33.4058526012
 30
0.0
 11
134.2900202312
 21
33.4058526012
 31
0.0
 70
   160
 71
     1
 42
-1.0
  3
SLDDIMSTYLE0
100
AcDbAlignedDimension
 13
73.6535520231
 23
55.9058526012
 33
0.0
 14
193.6535520231
 24
55.9058526012
 34
0.0
 50
0.0
100
AcDbRotatedDimension
  0
DIMENSION
  5
373
330
1F
100
AcDbEntity
  8
0
  6
Continuous
 62
     7
370
     0
100
AcDbDimension
  2
*D2
 10
239.6535520231
 20
176.4058526012
 30
0.0
 11
239.6535520231
 21
116.8605549133
 31
0.0
 70
   160
 71
     1
 42
-1.0
  3
SLDDIMSTYLE0
100
AcDbAlignedDimension
 13
193.1535520231
 23
55.4058526012
 33
0.0
 14
193.1535520231
 24
176.4058526012
 34
0.0
 50
90.0
100
AcDbRotatedDimension
  0
DIMENSION
  5
37D
330
1F
100
AcDbEntity
  8
0
  6
Continuous
 62
     7
370
     0
100
AcDbDimension
  2
*D3
 10
215.6535520231
 20
176.4058526012
 30
0.0
 11
215.6535520231
 21
142.319283237
 31
0.0
 70
   160
 71
     1
 42
-1.0
  3
SLDDIMSTYLE0
100
AcDbAlignedDimension
 13
187.2019127764
 23
156.4058511799
 33
0.0
 14
193.1535520231
 24
176.4058526012
 34
0.0
 50
90.0
100
AcDbRotatedDimension
  0
ENDSEC
  0
SECTION
  2
OBJECTS
  0
DICTIONARY
  5
C
330
0
100
AcDbDictionary
281
     1
  3
ACAD_GROUP
350
D
  3
ACAD_LAYOUT
350
1A
  3
ACAD_MLINESTYLE
350
17
  3
ACAD_PLOTSETTINGS
350
19
  3
ACAD_PLOTSTYLENAME
350
E
  0
DICTIONARY
  5
D
102
{ACAD_REACTORS
330
C
102
}
330
C
100
AcDbDictionary
281
     1
  0
DICTIONARY
  5
1A
102
{ACAD_REACTORS
330
C
102
}
330
C
100
AcDbDictionary
281
     1
  3
Layout1
350
1E
  3
Layout2
350
26
  3
Model
350
22
  0
DICTIONARY
  5
17
102
{ACAD_REACTORS
330
C
102
}
330
C
100
AcDbDictionary
281
     1
  3
Standard
350
18
  0
DICTIONARY
  5
19
102
{ACAD_REACTORS
330
C
102
}
330
C
100
AcDbDictionary
281
     1
  0
ACDBDICTIONARYWDFLT
  5
E
102
{ACAD_REACTORS
330
C
102
}
330
C
100
AcDbDictionary
281
     1
  3
Normal
350
F
100
AcDbDictionaryWithDefault
340
F
  0
LAYOUT
  5
1E
102
{ACAD_REACTORS
330
1A
102
}
330
1A
100
AcDbPlotSettings
  1

  2

  4

  6

 40
0.0
 41
0.0
 42
0.0
 43
0.0
 44
0.0
 45
0.0
 46
0.0
 47
0.0
 48
0.0
 49
0.0
140
0.0
141
0.0
142
1.0
143
1.0
 70
   688
 72
     0
 73
     0
 74
     5
  7

 75
    16
147
1.0
148
0.0
149
0.0
100
AcDbLayout
  1
Layout1
 70
     1
 71
     1
 10
0.0
 20
0.0
 11
420.0
 21
297.0
 12
0.0
 22
0.0
 32
0.0
 14
1.0000000000E+20
 24
1.0000000000E+20
 34
1.0000000000E+20
 15
-1.0000000000E+20
 25
-1.0000000000E+20
 35
-1.0000000000E+20
146
0.0
 13
0.0
 23
0.0
 33
0.0
 16
1.0
 26
0.0
 36
0.0
 17
0.0
 27
1.0
 37
0.0
 76
     0
330
1B
  0
LAYOUT
  5
26
102
{ACAD_REACTORS
330
1A
102
}
330
1A
100
AcDbPlotSettings
  1

  2

  4

  6

 40
0.0
 41
0.0
 42
0.0
 43
0.0
 44
0.0
 45
0.0
 46
0.0
 47
0.0
 48
0.0
 49
0.0
140
0.0
141
0.0
142
1.0
143
1.0
 70
   688
 72
     0
 73
     0
 74
     5
  7

 75
    16
147
1.0
148
0.0
149
0.0
100
AcDbLayout
  1
Layout2
 70
     1
 71
     2
 10
0.0
 20
0.0
 11
0.0
 21
0.0
 12
0.0
 22
0.0
 32
0.0
 14
0.0
 24
0.0
 34
0.0
 15
0.0
 25
0.0
 35
0.0
146
0.0
 13
0.0
 23
0.0
 33
0.0
 16
1.0
 26
0.0
 36
0.0
 17
0.0
 27
1.0
 37
0.0
 76
     0
330
23
  0
LAYOUT
  5
22
102
{ACAD_REACTORS
330
1A
102
}
330
1A
100
AcDbPlotSettings
  1

  2

  4

  6

 40
0.0
 41
0.0
 42
0.0
 43
0.0
 44
0.0
 45
0.0
 46
0.0
 47
0.0
 48
0.0
 49
0.0
140
0.0
141
0.0
142
1.0
143
1.0
 70
  1712
 72
     0
 73
     0
 74
     0
  7

 75
     0
147
1.0
148
0.0
149
0.0
100
AcDbLayout
  1
Model
 70
     1
 71
     0
 10
0.0
 20
0.0
 11
0.0
 21
0.0
 12
0.0
 22
0.0
 32
0.0
 14
0.0
 24
0.0
 34
0.0
 15
279.4
 25
215.9
 35
0.0
146
0.0
 13
0.0
 23
0.0
 33
0.0
 16
1.0
 26
0.0
 36
0.0
 17
0.0
 27
1.0
 37
0.0
 76
     0
330
1F
  0
MLINESTYLE
  5
18
102
{ACAD_REACTORS
330
17
102
}
330
17
100
AcDbMlineStyle
  2
Standard
 70
     0
  3

 62
   256
 51
90.0
 52
90.0
 71
     2
 49
0.5
 62
   256
  6
BYLAYER
 49
-0.5
 62
   256
  6
BYLAYER
  0
ACDBPLACEHOLDER
  5
F
102
{ACAD_REACTORS
330
E
102
}
330
E
  0
ENDSEC
  0
EOF
