  0
SECTION
  2
HEADER
  9
$ACADVER
  1
AC1015
  9
$ACADMAINTVER
 70
     6
  9
$DWGCODEPAGE
  3
ANSI_1252
  9
$INSBASE
 10
0.0
 20
0.0
 30
0.0
  9
$EXTMIN
 10
0.0
 20
0.0
 30
0.0
  9
$EXTMAX
 10
279.4
 20
215.9
 30
0.0
  9
$LIMMIN
 10
0.0
 20
0.0
  9
$LIMMAX
 10
0.0
 20
0.0
  9
$ORTHOMODE
 70
     0
  9
$REGENMODE
 70
     1
  9
$FILLMODE
 70
     1
  9
$QTEXTMODE
 70
     0
  9
$MIRRTEXT
 70
     1
  9
$LTSCALE
 40
1.0
  9
$ATTMODE
 70
     1
  9
$TEXTSIZE
 40
3.5
  9
$TRACEWID
 40
1.0
  9
$TEXTSTYLE
  7
Standard
  9
$CLAYER
  8
0
  9
$CELTYPE
  6
ByLayer
  9
$CECOLOR
 62
   256
  9
$CELTSCALE
 40
1.0
  9
$DISPSILH
 70
     0
  9
$DIMSCALE
 40
1.0
  9
$DIMASZ
 40
3.302
  9
$DIMEXO
 40
1.0
  9
$DIMDLI
 40
3.75
  9
$DIMRND
 40
0.0
  9
$DIMDLE
 40
0.0
  9
$DIMEXE
 40
1.0
  9
$DIMTP
 40
0.0
  9
$DIMTM
 40
0.0
  9
$DIMTXT
 40
8.8194444444
  9
$DIMCEN
 40
2.5
  9
$DIMTSZ
 40
0.0
  9
$DIMTOL
 70
     0
  9
$DIMLIM
 70
     0
  9
$DIMTIH
 70
     1
  9
$DIMTOH
 70
     1
  9
$DIMSE1
 70
     0
  9
$DIMSE2
 70
     0
  9
$DIMTAD
 70
     1
  9
$DIMZIN
 70
     0
  9
$DIMBLK
  1

  9
$DIMASO
 70
     1
  9
$DIMSHO
 70
     1
  9
$DIMPOST
  1

  9
$DIMAPOST
  1

  9
$DIMALT
 70
     0
  9
$DIMALTD
 70
     3
  9
$DIMALTF
 40
0.0393700787
  9
$DIMLFAC
 40
5.0
  9
$DIMTOFL
 70
     1
  9
$DIMTVP
 40
0.0
  9
$DIMTIX
 70
     0
  9
$DIMSOXD
 70
     0
  9
$DIMSAH
 70
     0
  9
$DIMBLK1
  1

  9
$DIMBLK2
  1

  9
$DIMSTYLE
  2
ISO-25
  9
$DIMCLRD
 70
     0
  9
$DIMCLRE
 70
     0
  9
$DIMCLRT
 70
     0
  9
$DIMTFAC
 40
1.0
  9
$DIMGAP
 40
1.524
  9
$DIMJUST
 70
     0
  9
$DIMSD1
 70
     0
  9
$DIMSD2
 70
     0
  9
$DIMTOLJ
 70
     0
  9
$DIMTZIN
 70
     0
  9
$DIMALTZ
 70
     0
  9
$DIMALTTZ
 70
     0
  9
$DIMUPT
 70
     0
  9
$DIMDEC
 70
     2
  9
$DIMTDEC
 70
     2
  9
$DIMALTU
 70
     2
  9
$DIMALTTD
 70
     3
  9
$DIMTXSTY
  7
Standard
  9
$DIMAUNIT
 70
     0
  9
$DIMADEC
 70
     0
  9
$DIMALTRND
 40
0.0
  9
$DIMAZIN
 70
     0
  9
$DIMDSEP
 70
    44
  9
$DIMATFIT
 70
     3
  9
$DIMFRAC
 70
     0
  9
$DIMLDRBLK
  1

  9
$DIMLUNIT
 70
     2
  9
$DIMLWD
 70
    -2
  9
$DIMLWE
 70
    -2
  9
$DIMTMOVE
 70
     0
  9
$LUNITS
 70
     2
  9
$LUPREC
 70
     2
  9
$SKETCHINC
 40
1.0
  9
$FILLETRAD
 40
10.0
  9
$AUNITS
 70
     0
  9
$AUPREC
 70
     0
  9
$MENU
  1
.
  9
$ELEVATION
 40
0.0
  9
$PELEVATION
 40
0.0
  9
$THICKNESS
 40
0.0
  9
$LIMCHECK
 70
     0
  9
$CHAMFERA
 40
10.0
  9
$CHAMFERB
 40
10.0
  9
$CHAMFERC
 40
20.0
  9
$CHAMFERD
 40
0.0
  9
$SKPOLY
 70
     0
  9
$TDCREATE
 40
2454522.332549063
  9
$TDUCREATE
 40
2454522.290882396
  9
$TDUPDATE
 40
2454522.332549074
  9
$TDUUPDATE
 40
2454522.290882407
  9
$TDINDWG
 40
0.0000000116
  9
$TDUSRTIMER
 40
0.0000000116
  9
$USRTIMER
 70
     1
  9
$ANGBASE
 50
0.0
  9
$ANGDIR
 70
     0
  9
$PDMODE
 70
     0
  9
$PDSIZE
 40
-1.0
  9
$PLINEWID
 40
0.0
  9
$SPLFRAME
 70
     0
  9
$SPLINETYPE
 70
     6
  9
$SPLINESEGS
 70
     8
  9
$HANDSEED
  5
144
  9
$SURFTAB1
 70
     6
  9
$SURFTAB2
 70
     6
  9
$SURFTYPE
 70
     6
  9
$SURFU
 70
     6
  9
$SURFV
 70
     6
  9
$UCSBASE
  2

  9
$UCSNAME
  2

  9
$UCSORG
 10
0.0
 20
0.0
 30
0.0
  9
$UCSXDIR
 10
1.0
 20
0.0
 30
0.0
  9
$UCSYDIR
 10
0.0
 20
1.0
 30
0.0
  9
$UCSORTHOREF
  2

  9
$UCSORTHOVIEW
 70
     0
  9
$UCSORGTOP
 10
0.0
 20
0.0
 30
0.0
  9
$UCSORGBOTTOM
 10
0.0
 20
0.0
 30
0.0
  9
$UCSORGLEFT
 10
0.0
 20
0.0
 30
0.0
  9
$UCSORGRIGHT
 10
0.0
 20
0.0
 30
0.0
  9
$UCSORGFRONT
 10
0.0
 20
0.0
 30
0.0
  9
$UCSORGBACK
 10
0.0
 20
0.0
 30
0.0
  9
$PUCSBASE
  2

  9
$PUCSNAME
  2

  9
$PUCSORG
 10
0.0
 20
0.0
 30
0.0
  9
$PUCSXDIR
 10
1.0
 20
0.0
 30
0.0
  9
$PUCSYDIR
 10
0.0
 20
1.0
 30
0.0
  9
$PUCSORTHOREF
  2

  9
$PUCSORTHOVIEW
 70
     0
  9
$PUCSORGTOP
 10
0.0
 20
0.0
 30
0.0
  9
$PUCSORGBOTTOM
 10
0.0
 20
0.0
 30
0.0
  9
$PUCSORGLEFT
 10
0.0
 20
0.0
 30
0.0
  9
$PUCSORGRIGHT
 10
0.0
 20
0.0
 30
0.0
  9
$PUCSORGFRONT
 10
0.0
 20
0.0
 30
0.0
  9
$PUCSORGBACK
 10
0.0
 20
0.0
 30
0.0
  9
$USERI1
 70
     0
  9
$USERI2
 70
     0
  9
$USERI3
 70
     0
  9
$USERI4
 70
     0
  9
$USERI5
 70
     0
  9
$USERR1
 40
0.0
  9
$USERR2
 40
0.0
  9
$USERR3
 40
0.0
  9
$USERR4
 40
0.0
  9
$USERR5
 40
0.0
  9
$WORLDVIEW
 70
     1
  9
$SHADEDGE
 70
     3
  9
$SHADEDIF
 70
    70
  9
$TILEMODE
 70
     1
  9
$MAXACTVP
 70
    64
  9
$PINSBASE
 10
0.0
 20
0.0
 30
0.0
  9
$PLIMCHECK
 70
     0
  9
$PEXTMIN
 10
1.0000000000E+20
 20
1.0000000000E+20
 30
1.0000000000E+20
  9
$PEXTMAX
 10
-1.0000000000E+20
 20
-1.0000000000E+20
 30
-1.0000000000E+20
  9
$PLIMMIN
 10
0.0
 20
0.0
  9
$PLIMMAX
 10
420.0
 20
297.0
  9
$UNITMODE
 70
     0
  9
$VISRETAIN
 70
     1
  9
$PLINEGEN
 70
     0
  9
$PSLTSCALE
 70
     1
  9
$TREEDEPTH
 70
  3020
  9
$CMLSTYLE
  2
Standard
  9
$CMLJUST
 70
     0
  9
$CMLSCALE
 40
20.0
  9
$PROXYGRAPHICS
 70
     1
  9
$MEASUREMENT
 70
     1
  9
$CELWEIGHT
370
    -1
  9
$ENDCAPS
280
     0
  9
$JOINSTYLE
280
     0
  9
$LWDISPLAY
290
     1
  9
$INSUNITS
 70
     4
  9
$HYPERLINKBASE
  1

  9
$STYLESHEET
  1

  9
$XEDIT
290
     1
  9
$CEPSNTYPE
380
     0
  9
$PSTYLEMODE
290
     1
  9
$FINGERPRINTGUID
  2
{E28DDEDD-BB47-4C57-9FC4-47C6D5B1C1CC}
  9
$VERSIONGUID
  2
{FAEB1C32-E019-11D5-929B-00C0DF256EC4}
  9
$EXTNAMES
290
     1
  9
$PSVPSCALE
 40
0.0
  9
$OLESTARTUP
290
     0
  0
ENDSEC
  0
SECTION
  2
CLASSES
  0
CLASS
  1
ACDBDICTIONARYWDFLT
  2
AcDbDictionaryWithDefault
  3
ObjectDBX Classes
 90
        0
280
     0
281
     0
  0
CLASS
  1
ACDBPLACEHOLDER
  2
AcDbPlaceHolder
  3
ObjectDBX Classes
 90
        0
280
     0
281
     0
  0
CLASS
  1
LAYOUT
  2
AcDbLayout
  3
ObjectDBX Classes
 90
        0
280
     0
281
     0
  0
ENDSEC
  0
SECTION
  2
TABLES
  0
TABLE
  2
VPORT
  5
8
330
0
100
AcDbSymbolTable
 70
     1
  0
VPORT
  5
29
330
8
100
AcDbSymbolTableRecord
100
AcDbViewportTableRecord
  2
*Active
 70
     0
 10
0.0
 20
0.0
 11
1.0
 21
1.0
 12
139.7
 22
107.95
 13
0.0
 23
0.0
 14
10.0
 24
10.0
 15
10.0
 25
10.0
 16
0.0
 26
0.0
 36
1.0
 17
0.0
 27
0.0
 37
0.0
 40
215.9
 41
1.2941176471
 42
50.0
 43
0.0
 44
0.0
 50
0.0
 51
0.0
 71
     0
 72
  2000
 73
     1
 74
     3
 75
     0
 76
     0
 77
     0
 78
     0
281
     0
 65
     1
110
0.0
120
0.0
130
0.0
111
1.0
121
0.0
131
0.0
112
0.0
122
1.0
132
0.0
 79
     0
146
0.0
  0
ENDTAB
  0
TABLE
  2
LTYPE
  5
5
330
0
100
AcDbSymbolTable
 70
     6
  0
LTYPE
  5
14
330
5
100
AcDbSymbolTableRecord
100
AcDbLinetypeTableRecord
  2
ByBlock
 70
     0
  3

 72
    65
 73
     0
 40
0.0
  0
LTYPE
  5
15
330
5
100
AcDbSymbolTableRecord
100
AcDbLinetypeTableRecord
  2
ByLayer
 70
     0
  3

 72
    65
 73
     0
 40
0.0
  0
LTYPE
  5
16
330
5
100
AcDbSymbolTableRecord
100
AcDbLinetypeTableRecord
  2
Continuous
 70
     0
  3
Solid line
 72
    65
 73
     0
 40
0.0
  0
LTYPE
  5
2A
330
5
100
AcDbSymbolTableRecord
100
AcDbLinetypeTableRecord
  2
HIDDEN
 70
     0
  3
Hidden __ __ __ __ __ __ __ __ __ __ __ __ __ __
 72
    65
 73
     2
 40
1.905
 49
1.27
 74
     0
 49
-0.635
 74
     0
  0
LTYPE
  5
2B
330
5
100
AcDbSymbolTableRecord
100
AcDbLinetypeTableRecord
  2
PHANTOM
 70
     0
  3
Phantom ______  __  __  ______  __  __  ______
 72
    65
 73
     6
 40
12.7
 49
6.35
 74
     0
 49
-1.27
 74
     0
 49
1.27
 74
     0
 49
-1.27
 74
     0
 49
1.27
 74
     0
 49
-1.27
 74
     0
  0
LTYPE
  5
2C
330
5
100
AcDbSymbolTableRecord
100
AcDbLinetypeTableRecord
  2
CENTER
 70
     0
  3
Center ____ _ ____ _ ____ _ ____ _ ____ _ ____
 72
    65
 73
     4
 40
10.16
 49
6.35
 74
     0
 49
-1.27
 74
     0
 49
1.27
 74
     0
 49
-1.27
 74
     0
  0
LTYPE
  5
2D
330
5
100
AcDbSymbolTableRecord
100
AcDbLinetypeTableRecord
  2
CENTERX2
 70
     0
  3
Center (2x) ________  __  ________  __  _____
 72
    65
 73
     4
 40
20.32
 49
12.7
 74
     0
 49
-2.54
 74
     0
 49
2.54
 74
     0
 49
-2.54
 74
     0
  0
LTYPE
  5
2E
330
5
100
AcDbSymbolTableRecord
100
AcDbLinetypeTableRecord
  2
DOT2
 70
     0
  3
Dot (.5x) ........................................
 72
    65
 73
     2
 40
0.635
 49
0.0
 74
     0
 49
-0.635
 74
     0
  0
ENDTAB
  0
TABLE
  2
LAYER
  5
2
330
0
100
AcDbSymbolTable
 70
     1
  0
LAYER
  5
10
330
2
100
AcDbSymbolTableRecord
100
AcDbLayerTableRecord
  2
0
 70
     0
 62
     7
  6
Continuous
370
    -3
390
F
  0
ENDTAB
  0
TABLE
  2
STYLE
  5
3
330
0
100
AcDbSymbolTable
 70
     2
  0
STYLE
  5
11
330
3
100
AcDbSymbolTableRecord
100
AcDbTextStyleTableRecord
  2
Standard
 70
     0
 40
0.0
 41
1.0
 50
0.0
 71
     0
 42
2.5
  3
txt
  4

  0
STYLE
  5
120
330
3
100
AcDbSymbolTableRecord
100
AcDbTextStyleTableRecord
  2
SLDTEXTSTYLE0
 70
     0
 40
0.0
 41
0.75
 50
0.0
 71
     0
 42
0.2
  3
TXT
  4

  0
ENDTAB
  0
TABLE
  2
VIEW
  5
6
330
0
100
AcDbSymbolTable
 70
     0
  0
ENDTAB
  0
TABLE
  2
UCS
  5
7
330
0
100
AcDbSymbolTable
 70
     0
  0
ENDTAB
  0
TABLE
  2
APPID
  5
9
330
0
100
AcDbSymbolTable
 70
     1
  0
APPID
  5
12
330
9
100
AcDbSymbolTableRecord
100
AcDbRegAppTableRecord
  2
ACAD
 70
     0
  0
ENDTAB
  0
TABLE
  2
DIMSTYLE
  5
A
330
0
100
AcDbSymbolTable
 70
     3
100
AcDbDimStyleTable
  0
DIMSTYLE
105
27
330
A
100
AcDbSymbolTableRecord
100
AcDbDimStyleTableRecord
  2
ISO-25
 70
     0
 41
2.5
 42
0.625
 43
3.75
 44
1.25
 73
     0
 74
     0
 77
     1
 78
     8
140
2.5
141
2.5
143
0.0393700787
147
0.625
171
     3
172
     1
271
     2
272
     2
274
     3
278
    44
283
     0
284
     8
340
11
  0
DIMSTYLE
105
121
102
{ACAD_REACTORS
330
11F
330
138
102
}
330
A
100
AcDbSymbolTableRecord
100
AcDbDimStyleTableRecord
  2
SLDDIMSTYLE0
 70
     0
 41
3.302
 44
0.0
 73
     0
 74
     0
 77
     1
 78
    12
140
6.6145833333
147
1.6536458333
173
     1
271
     2
272
     2
284
    12
340
120
  0
DIMSTYLE
105
12C
102
{ACAD_REACTORS
330
12B
102
}
330
A
100
AcDbSymbolTableRecord
100
AcDbDimStyleTableRecord
  2
SLDDIMSTYLE1
 70
     0
 41
3.302
 44
0.0
 73
     0
 74
     0
 77
     1
 78
    12
140
6.6145833333
147
1.6536458333
173
     1
271
     1
272
     1
284
    12
340
120
  0
ENDTAB
  0
TABLE
  2
BLOCK_RECORD
  5
1
330
0
100
AcDbSymbolTable
 70
     4
  0
BLOCK_RECORD
  5
1F
330
1
100
AcDbSymbolTableRecord
100
AcDbBlockTableRecord
  2
*Model_Space
340
22
  0
BLOCK_RECORD
  5
1B
330
1
100
AcDbSymbolTableRecord
100
AcDbBlockTableRecord
  2
*Paper_Space
340
1E
  0
BLOCK_RECORD
  5
23
330
1
100
AcDbSymbolTableRecord
100
AcDbBlockTableRecord
  2
*Paper_Space0
340
26
  0
BLOCK_RECORD
  5
122
330
1
100
AcDbSymbolTableRecord
100
AcDbBlockTableRecord
  2
*D1
340
0
  0
BLOCK_RECORD
  5
12D
330
1
100
AcDbSymbolTableRecord
100
AcDbBlockTableRecord
  2
*D2
340
0
  0
BLOCK_RECORD
  5
139
330
1
100
AcDbSymbolTableRecord
100
AcDbBlockTableRecord
  2
*D3
340
0
  0
ENDTAB
  0
ENDSEC
  0
SECTION
  2
BLOCKS
  0
BLOCK
  5
20
330
1F
100
AcDbEntity
  8
0
100
AcDbBlockBegin
  2
*Model_Space
 70
     0
 71
     0
 10
0.0
 20
0.0
 30
0.0
  3
*Model_Space
  1

  0
ENDBLK
  5
21
330
1F
100
AcDbEntity
  8
0
100
AcDbBlockEnd
  0
BLOCK
  5
1C
330
1B
100
AcDbEntity
 67
     1
  8
0
100
AcDbBlockBegin
  2
*Paper_Space
 70
     0
 71
     0
 10
0.0
 20
0.0
 30
0.0
  3
*Paper_Space
  1

  0
ENDBLK
  5
1D
330
1B
100
AcDbEntity
 67
     1
  8
0
100
AcDbBlockEnd
  0
BLOCK
  5
24
330
23
100
AcDbEntity
  8
0
100
AcDbBlockBegin
  2
*Paper_Space0
 70
     0
 71
     0
 10
0.0
 20
0.0
 30
0.0
  3
*Paper_Space0
  1

  0
ENDBLK
  5
25
330
23
100
AcDbEntity
  8
0
100
AcDbBlockEnd
  0
BLOCK
  5
123
330
122
100
AcDbEntity
  8
0
100
AcDbBlockBegin
  2
*D1
 70
     1
 71
     0
 10
0.0
 20
0.0
 30
0.0
  3
*D1
  1

  0
SOLID
  5
125
330
122
100
AcDbEntity
  8
0
  6
Continuous
 62
     7
370
     0
100
AcDbTrace
 10
36.199422225
 20
100.9981728225
 30
0.0
 11
39.5014222261
 21
100.4901728296
 31
0.0
 12
39.5014222239
 22
101.5061728296
 32
0.0
 13
39.5014222239
 23
101.5061728296
 33
0.0
  0
SOLID
  5
126
330
122
100
AcDbEntity
  8
0
  6
Continuous
 62
     7
370
     0
100
AcDbTrace
 10
236.1994275562
 20
100.9981732485
 30
0.0
 11
232.8974275552
 21
101.5061732415
 31
0.0
 12
232.8974275573
 22
100.4901732415
 32
0.0
 13
232.8974275573
 23
100.4901732415
 33
0.0
  0
LINE
  5
127
330
122
100
AcDbEntity
  8
0
  6
Continuous
 62
     7
370
     0
100
AcDbLine
 10
36.199422192
 20
116.4981730252
 30
0.0
 11
36.1994222272
 21
99.9981728225
 31
0.0
  0
LINE
  5
128
330
122
100
AcDbEntity
  8
0
  6
Continuous
 62
     7
370
     0
100
AcDbLine
 10
236.1994275232
 20
116.4981734512
 30
0.0
 11
236.1994275584
 21
99.9981732485
 31
0.0
  0
LINE
  5
129
330
122
100
AcDbEntity
  8
0
  6
Continuous
 62
     7
370
     0
100
AcDbLine
 10
36.199422225
 20
100.9981728225
 30
0.0
 11
236.1994275562
 21
100.9981732485
 31
0.0
  0
MTEXT
  5
12A
330
122
100
AcDbEntity
  8
0
  6
Continuous
 62
     7
370
     0
100
AcDbMText
 10
123.9965173774
 20
109.4472698056
 30
0.0
 40
6.6145833333
 41
0.0
 71
     1
 72
     1
  1
200
  7
SLDTEXTSTYLE0
 11
1.0
 21
2.129873150281120E-9
 31
0.0
 73
     1
 44
1.0
  0
ENDBLK
  5
124
330
122
100
AcDbEntity
  8
0
100
AcDbBlockEnd
  0
BLOCK
  5
12E
330
12D
100
AcDbEntity
  8
0
100
AcDbBlockBegin
  2
*D2
 70
     1
 71
     0
 10
0.0
 20
0.0
 30
0.0
  3
*D2
  1

  0
SOLID
  5
130
330
12D
100
AcDbEntity
  8
0
  6
Continuous
 62
     7
370
     0
100
AcDbTrace
 10
247.9193632857
 20
116.9981730252
 30
0.0
 11
247.4113632857
 21
113.6961730252
 31
0.0
 12
248.4273632857
 22
113.6961730252
 32
0.0
 13
248.4273632857
 23
113.6961730252
 33
0.0
  0
SOLID
  5
131
330
12D
100
AcDbEntity
  8
0
  6
Continuous
 62
     7
370
     0
100
AcDbTrace
 10
247.9193632857
 20
120.5981735498
 30
0.0
 11
248.4273632857
 21
123.9001735498
 31
0.0
 12
247.4113632857
 22
123.9001735498
 32
0.0
 13
247.4113632857
 23
123.9001735498
 33
0.0
  0
LINE
  5
132
330
12D
100
AcDbEntity
  8
0
  6
Continuous
 62
     7
370
     0
100
AcDbLine
 10
236.6994221899
 20
116.9981730252
 30
0.0
 11
248.9193632857
 21
116.9981730252
 31
0.0
  0
LINE
  5
133
330
12D
100
AcDbEntity
  8
0
  6
Continuous
 62
     7
370
     0
100
AcDbLine
 10
235.2175044136
 20
120.5981735498
 30
0.0
 11
248.9193632857
 21
120.5981735498
 31
0.0
  0
LINE
  5
134
330
12D
100
AcDbEntity
  8
0
  6
Continuous
 62
     7
370
     0
100
AcDbLine
 10
247.9193632857
 20
116.9981730252
 30
0.0
 11
247.9193632857
 21
96.6103630418
 31
0.0
  0
LINE
  5
135
330
12D
100
AcDbEntity
  8
0
  6
Continuous
 62
     7
370
     0
100
AcDbLine
 10
247.9193632857
 20
116.9981730252
 30
0.0
 11
247.9193632857
 21
120.5981735498
 31
0.0
  0
LINE
  5
136
330
12D
100
AcDbEntity
  8
0
  6
Continuous
 62
     7
370
     0
100
AcDbLine
 10
247.9193632857
 20
120.5981735498
 30
0.0
 11
247.9193632857
 21
126.9481735498
 31
0.0
  0
MTEXT
  5
137
330
12D
100
AcDbEntity
  8
0
  6
Continuous
 62
     7
370
     0
100
AcDbMText
 10
239.4702664896
 20
98.1978630418
 30
0.0
 40
6.6145833333
 41
0.0
 71
     1
 72
     1
  1
3,6
  7
SLDTEXTSTYLE0
 11
6.123031769111886E-17
 21
1.0
 31
0.0
 73
     1
 44
1.0
  0
ENDBLK
  5
12F
330
12D
100
AcDbEntity
  8
0
100
AcDbBlockEnd
  0
BLOCK
  5
13A
330
139
100
AcDbEntity
  8
0
100
AcDbBlockBegin
  2
*D3
 70
     1
 71
     0
 10
0.0
 20
0.0
 30
0.0
  3
*D3
  1

  0
SOLID
  5
13C
330
139
100
AcDbEntity
  8
0
  6
Continuous
 62
     7
370
     0
100
AcDbTrace
 10
259.1090697776
 20
116.9981730252
 30
0.0
 11
258.6010697776
 21
113.6961730252
 31
0.0
 12
259.6170697776
 22
113.6961730252
 32
0.0
 13
259.6170697776
 23
113.6961730252
 33
0.0
  0
SOLID
  5
13D
330
139
100
AcDbEntity
  8
0
  6
Continuous
 62
     7
370
     0
100
AcDbTrace
 10
259.1090697776
 20
131.9981737957
 30
0.0
 11
259.6170697776
 21
135.3001737957
 31
0.0
 12
258.6010697776
 22
135.3001737957
 32
0.0
 13
258.6010697776
 23
135.3001737957
 33
0.0
  0
LINE
  5
13E
330
139
100
AcDbEntity
  8
0
  6
Continuous
 62
     7
370
     0
100
AcDbLine
 10
236.6994221899
 20
116.9981730252
 30
0.0
 11
260.1090697776
 21
116.9981730252
 31
0.0
  0
LINE
  5
13F
330
139
100
AcDbEntity
  8
0
  6
Continuous
 62
     7
370
     0
100
AcDbLine
 10
235.1159658609
 20
131.9981737957
 30
0.0
 11
260.1090697776
 21
131.9981737957
 31
0.0
  0
LINE
  5
140
330
139
100
AcDbEntity
  8
0
  6
Continuous
 62
     7
370
     0
100
AcDbLine
 10
259.1090697776
 20
116.9981730252
 30
0.0
 11
259.1090697776
 21
110.6481730252
 31
0.0
  0
LINE
  5
141
330
139
100
AcDbEntity
  8
0
  6
Continuous
 62
     7
370
     0
100
AcDbLine
 10
259.1090697776
 20
116.9981730252
 30
0.0
 11
259.1090697776
 21
131.9981737957
 31
0.0
  0
LINE
  5
142
330
139
100
AcDbEntity
  8
0
  6
Continuous
 62
     7
370
     0
100
AcDbLine
 10
259.1090697776
 20
131.9981737957
 30
0.0
 11
259.1090697776
 21
138.3481737957
 31
0.0
  0
MTEXT
  5
143
330
139
100
AcDbEntity
  8
0
  6
Continuous
 62
     7
370
     0
100
AcDbMText
 10
250.6599729815
 20
119.261077726
 30
0.0
 40
6.6145833333
 41
0.0
 71
     1
 72
     1
  1
15
  7
SLDTEXTSTYLE0
 11
6.123031769111886E-17
 21
1.0
 31
0.0
 73
     1
 44
1.0
  0
ENDBLK
  5
13B
330
139
100
AcDbEntity
  8
0
100
AcDbBlockEnd
  0
ENDSEC
  0
SECTION
  2
ENTITIES
  0
LINE
  5
2F
330
1F
100
AcDbEntity
  8
0
  6
Continuous
 62
     7
370
    15
100
AcDbLine
 10
36.6994221899
 20
116.9981730252
 30
0.0
 11
235.6994221899
 21
116.9981730252
 31
0.0
  0
ARC
  5
30
330
1F
100
AcDbEntity
  8
0
  6
Continuous
 62
     7
370
    15
100
AcDbCircle
 10
36.6994221899
 20
117.4981730252
 30
0.0
 40
0.5
100
AcDbArc
 50
180.0
 51
270.0
  0
LINE
  5
31
330
1F
100
AcDbEntity
  8
0
  6
Continuous
 62
     7
370
    15
100
AcDbLine
 10
36.1994221899
 20
131.4481730252
 30
0.0
 11
36.1994221899
 21
117.4981730252
 31
0.0
  0
ARC
  5
32
330
1F
100
AcDbEntity
  8
0
  6
Continuous
 62
     7
370
    15
100
AcDbCircle
 10
36.7494221899
 20
131.4481730252
 30
0.0
 40
0.5499999999999972
100
AcDbArc
 50
2.109364
 51
180.0
  0
LINE
  5
33
330
1F
100
AcDbEntity
  8
0
  6
Continuous
 62
     7
370
    15
100
AcDbLine
 10
37.6816839941
 20
121.0797695096
 30
0.0
 11
37.2990495053
 21
131.4684168923
 31
0.0
  0
ARC
  5
34
330
1F
100
AcDbEntity
  8
0
  6
Continuous
 62
     7
370
    15
100
AcDbCircle
 10
38.1813451899
 20
121.0981730252
 30
0.0
 40
0.5
100
AcDbArc
 50
182.109364
 51
270.0
  0
LINE
  5
35
330
1F
100
AcDbEntity
  8
0
  6
Continuous
 62
     7
370
    15
100
AcDbLine
 10
40.6730461899
 20
120.5981730252
 30
0.0
 11
38.1813451899
 21
120.5981730252
 31
0.0
  0
ARC
  5
36
330
1F
100
AcDbEntity
  8
0
  6
Continuous
 62
     7
370
    15
100
AcDbCircle
 10
40.6730461899
 20
121.0981730252
 30
0.0
 40
0.5000000000000285
100
AcDbArc
 50
270.0
 51
358.417296
  0
LINE
  5
37
330
1F
100
AcDbEntity
  8
0
  6
Continuous
 62
     7
370
    15
100
AcDbLine
 10
41.4596320158
 20
131.4633639608
 30
0.0
 11
41.172855439
 21
121.0843630837
 31
0.0
  0
ARC
  5
38
330
1F
100
AcDbEntity
  8
0
  6
Continuous
 62
     7
370
    15
100
AcDbCircle
 10
42.0094221899
 20
131.4481730252
 30
0.0
 40
0.5500000000000264
100
AcDbArc
 50
1.582704
 51
178.417296
  0
LINE
  5
39
330
1F
100
AcDbEntity
  8
0
  6
Continuous
 62
     7
370
    15
100
AcDbLine
 10
42.8459879407
 20
121.0843630837
 30
0.0
 11
42.5592123639
 21
131.4633639608
 31
0.0
  0
ARC
  5
3A
330
1F
100
AcDbEntity
  8
0
  6
Continuous
 62
     7
370
    15
100
AcDbCircle
 10
43.3457971899
 20
121.0981730252
 30
0.0
 40
0.5000000000000143
100
AcDbArc
 50
181.582704
 51
270.0
  0
LINE
  5
3B
330
1F
100
AcDbEntity
  8
0
  6
Continuous
 62
     7
370
    15
100
AcDbLine
 10
46.1730461899
 20
120.5981730252
 30
0.0
 11
43.3457971899
 21
120.5981730252
 31
0.0
  0
ARC
  5
3C
330
1F
100
AcDbEntity
  8
0
  6
Continuous
 62
     7
370
    15
100
AcDbCircle
 10
46.1730461899
 20
121.0981730252
 30
0.0
 40
0.5000000000000285
100
AcDbArc
 50
270.0
 51
358.417296
  0
LINE
  5
3D
330
1F
100
AcDbEntity
  8
0
  6
Continuous
 62
     7
370
    15
100
AcDbLine
 10
46.9596320158
 20
131.4633639608
 30
0.0
 11
46.672855439
 21
121.0843630837
 31
0.0
  0
ARC
  5
3E
330
1F
100
AcDbEntity
  8
0
  6
Continuous
 62
     7
370
    15
100
AcDbCircle
 10
47.5094221899
 20
131.4481730252
 30
0.0
 40
0.5500000000000335
100
AcDbArc
 50
1.582704
 51
178.417296
  0
LINE
  5
3F
330
1F
100
AcDbEntity
  8
0
  6
Continuous
 62
     7
370
    15
100
AcDbLine
 10
48.3459879407
 20
121.0843630837
 30
0.0
 11
48.0592123639
 21
131.4633639608
 31
0.0
  0
ARC
  5
40
330
1F
100
AcDbEntity
  8
0
  6
Continuous
 62
     7
370
    15
100
AcDbCircle
 10
48.8457971899
 20
121.0981730252
 30
0.0
 40
0.5000000000000143
100
AcDbArc
 50
181.582704
 51
270.0
  0
LINE
  5
41
330
1F
100
AcDbEntity
  8
0
  6
Continuous
 62
     7
370
    15
100
AcDbLine
 10
51.0430461899
 20
120.5981730252
 30
0.0
 11
48.8457971899
 21
120.5981730252
 31
0.0
  0
ARC
  5
42
330
1F
100
AcDbEntity
  8
0
  6
Continuous
 62
     7
370
    15
100
AcDbCircle
 10
51.0430461899
 20
121.0981730252
 30
0.0
 40
0.5000000000000214
100
AcDbArc
 50
270.0
 51
358.417296
  0
LINE
  5
43
330
1F
100
AcDbEntity
  8
0
  6
Continuous
 62
     7
370
    15
100
AcDbLine
 10
51.8296320158
 20
131.4633639608
 30
0.0
 11
51.542855439
 21
121.0843630837
 31
0.0
  0
ARC
  5
44
330
1F
100
AcDbEntity
  8
0
  6
Continuous
 62
     7
370
    15
100
AcDbCircle
 10
52.3794221899
 20
131.4481730252
 30
0.0
 40
0.5499999999999979
100
AcDbArc
 50
1.582704
 51
178.417296
  0
LINE
  5
45
330
1F
100
AcDbEntity
  8
0
  6
Continuous
 62
     7
370
    15
100
AcDbLine
 10
53.2159879407
 20
121.0843630837
 30
0.0
 11
52.9292123639
 21
131.4633639608
 31
0.0
  0
ARC
  5
46
330
1F
100
AcDbEntity
  8
0
  6
Continuous
 62
     7
370
    15
100
AcDbCircle
 10
53.7157971899
 20
121.0981730252
 30
0.0
 40
0.5000000000000143
100
AcDbArc
 50
181.582704
 51
270.0
  0
LINE
  5
47
330
1F
100
AcDbEntity
  8
0
  6
Continuous
 62
     7
370
    15
100
AcDbLine
 10
56.5430461899
 20
120.5981730252
 30
0.0
 11
53.7157971899
 21
120.5981730252
 31
0.0
  0
ARC
  5
48
330
1F
100
AcDbEntity
  8
0
  6
Continuous
 62
     7
370
    15
100
AcDbCircle
 10
56.5430461899
 20
121.0981730252
 30
0.0
 40
0.4999999999999858
100
AcDbArc
 50
270.0
 51
358.417296
  0
LINE
  5
49
330
1F
100
AcDbEntity
  8
0
  6
Continuous
 62
     7
370
    15
100
AcDbLine
 10
57.3296320158
 20
131.4633639608
 30
0.0
 11
57.042855439
 21
121.0843630837
 31
0.0
  0
ARC
  5
4A
330
1F
100
AcDbEntity
  8
0
  6
Continuous
 62
     7
370
    15
100
AcDbCircle
 10
57.8794221899
 20
131.4481730252
 30
0.0
 40
0.550000000000005
100
AcDbArc
 50
1.582704
 51
178.417296
  0
LINE
  5
4B
330
1F
100
AcDbEntity
  8
0
  6
Continuous
 62
     7
370
    15
100
AcDbLine
 10
58.7159879407
 20
121.0843630837
 30
0.0
 11
58.4292123639
 21
131.4633639608
 31
0.0
  0
ARC
  5
4C
330
1F
100
AcDbEntity
  8
0
  6
Continuous
 62
     7
370
    15
100
AcDbCircle
 10
59.2157971899
 20
121.0981730252
 30
0.0
 40
0.5000000000000143
100
AcDbArc
 50
181.582704
 51
270.0
  0
LINE
  5
4D
330
1F
100
AcDbEntity
  8
0
  6
Continuous
 62
     7
370
    15
100
AcDbLine
 10
61.4130461899
 20
120.5981730252
 30
0.0
 11
59.2157971899
 21
120.5981730252
 31
0.0
  0
ARC
  5
4E
330
1F
100
AcDbEntity
  8
0
  6
Continuous
 62
     7
370
    15
100
AcDbCircle
 10
61.4130461899
 20
121.0981730252
 30
0.0
 40
0.5000000000000214
100
AcDbArc
 50
270.0
 51
358.417296
  0
LINE
  5
4F
330
1F
100
AcDbEntity
  8
0
  6
Continuous
 62
     7
370
    15
100
AcDbLine
 10
62.1996320158
 20
131.4633639608
 30
0.0
 11
61.912855439
 21
121.0843630837
 31
0.0
  0
ARC
  5
50
330
1F
100
AcDbEntity
  8
0
  6
Continuous
 62
     7
370
    15
100
AcDbCircle
 10
62.7494221899
 20
131.4481730252
 30
0.0
 40
0.5500000000000335
100
AcDbArc
 50
1.582704
 51
178.417296
  0
LINE
  5
51
330
1F
100
AcDbEntity
  8
0
  6
Continuous
 62
     7
370
    15
100
AcDbLine
 10
63.5859879407
 20
121.0843630837
 30
0.0
 11
63.2992123639
 21
131.4633639608
 31
0.0
  0
ARC
  5
52
330
1F
100
AcDbEntity
  8
0
  6
Continuous
 62
     7
370
    15
100
AcDbCircle
 10
64.0857971899
 20
121.0981730252
 30
0.0
 40
0.5000000000000143
100
AcDbArc
 50
181.582704
 51
270.0
  0
LINE
  5
53
330
1F
100
AcDbEntity
  8
0
  6
Continuous
 62
     7
370
    15
100
AcDbLine
 10
66.2830461899
 20
120.5981730252
 30
0.0
 11
64.0857971899
 21
120.5981730252
 31
0.0
  0
ARC
  5
54
330
1F
100
AcDbEntity
  8
0
  6
Continuous
 62
     7
370
    15
100
AcDbCircle
 10
66.2830461899
 20
121.0981730252
 30
0.0
 40
0.5000000000000214
100
AcDbArc
 50
270.0
 51
358.417296
  0
LINE
  5
55
330
1F
100
AcDbEntity
  8
0
  6
Continuous
 62
     7
370
    15
100
AcDbLine
 10
67.0696320158
 20
131.4633639608
 30
0.0
 11
66.782855439
 21
121.0843630837
 31
0.0
  0
ARC
  5
56
330
1F
100
AcDbEntity
  8
0
  6
Continuous
 62
     7
370
    15
100
AcDbCircle
 10
67.6194221899
 20
131.4481730252
 30
0.0
 40
0.5500000000000264
100
AcDbArc
 50
1.582704
 51
178.417296
  0
LINE
  5
57
330
1F
100
AcDbEntity
  8
0
  6
Continuous
 62
     7
370
    15
100
AcDbLine
 10
68.4559879407
 20
121.0843630837
 30
0.0
 11
68.1692123639
 21
131.4633639608
 31
0.0
  0
ARC
  5
58
330
1F
100
AcDbEntity
  8
0
  6
Continuous
 62
     7
370
    15
100
AcDbCircle
 10
68.9557971899
 20
121.0981730252
 30
0.0
 40
0.5000000000000214
100
AcDbArc
 50
181.582704
 51
270.0
  0
LINE
  5
59
330
1F
100
AcDbEntity
  8
0
  6
Continuous
 62
     7
370
    15
100
AcDbLine
 10
71.1530461899
 20
120.5981730252
 30
0.0
 11
68.9557971899
 21
120.5981730252
 31
0.0
  0
ARC
  5
5A
330
1F
100
AcDbEntity
  8
0
  6
Continuous
 62
     7
370
    15
100
AcDbCircle
 10
71.1530461899
 20
121.0981730252
 30
0.0
 40
0.5000000000000214
100
AcDbArc
 50
270.0
 51
358.417296
  0
LINE
  5
5B
330
1F
100
AcDbEntity
  8
0
  6
Continuous
 62
     7
370
    15
100
AcDbLine
 10
71.9396320158
 20
131.4633639608
 30
0.0
 11
71.652855439
 21
121.0843630837
 31
0.0
  0
ARC
  5
5C
330
1F
100
AcDbEntity
  8
0
  6
Continuous
 62
     7
370
    15
100
AcDbCircle
 10
72.4894221899
 20
131.4481730252
 30
0.0
 40
0.5499999999999979
100
AcDbArc
 50
1.582704
 51
178.417296
  0
LINE
  5
5D
330
1F
100
AcDbEntity
  8
0
  6
Continuous
 62
     7
370
    15
100
AcDbLine
 10
73.3259879407
 20
121.0843630837
 30
0.0
 11
73.0392123639
 21
131.4633639608
 31
0.0
  0
ARC
  5
5E
330
1F
100
AcDbEntity
  8
0
  6
Continuous
 62
     7
370
    15
100
AcDbCircle
 10
73.8257971899
 20
121.0981730252
 30
0.0
 40
0.5000000000000072
100
AcDbArc
 50
181.582704
 51
270.0
  0
LINE
  5
5F
330
1F
100
AcDbEntity
  8
0
  6
Continuous
 62
     7
370
    15
100
AcDbLine
 10
76.6530461899
 20
120.5981730252
 30
0.0
 11
73.8257971899
 21
120.5981730252
 31
0.0
  0
ARC
  5
60
330
1F
100
AcDbEntity
  8
0
  6
Continuous
 62
     7
370
    15
100
AcDbCircle
 10
76.6530461899
 20
121.0981730252
 30
0.0
 40
0.4999999999999858
100
AcDbArc
 50
270.0
 51
358.417296
  0
LINE
  5
61
330
1F
100
AcDbEntity
  8
0
  6
Continuous
 62
     7
370
    15
100
AcDbLine
 10
77.4396320158
 20
131.4633639608
 30
0.0
 11
77.152855439
 21
121.0843630837
 31
0.0
  0
ARC
  5
62
330
1F
100
AcDbEntity
  8
0
  6
Continuous
 62
     7
370
    15
100
AcDbCircle
 10
77.9894221899
 20
131.4481730252
 30
0.0
 40
0.5500000000000123
100
AcDbArc
 50
1.582704
 51
178.417296
  0
LINE
  5
63
330
1F
100
AcDbEntity
  8
0
  6
Continuous
 62
     7
370
    15
100
AcDbLine
 10
78.8259879407
 20
121.0843630837
 30
0.0
 11
78.5392123639
 21
131.4633639608
 31
0.0
  0
ARC
  5
64
330
1F
100
AcDbEntity
  8
0
  6
Continuous
 62
     7
370
    15
100
AcDbCircle
 10
79.3257971899
 20
121.0981730252
 30
0.0
 40
0.5000000000000214
100
AcDbArc
 50
181.582704
 51
270.0
  0
LINE
  5
65
330
1F
100
AcDbEntity
  8
0
  6
Continuous
 62
     7
370
    15
100
AcDbLine
 10
81.5230461899
 20
120.5981730252
 30
0.0
 11
79.3257971899
 21
120.5981730252
 31
0.0
  0
ARC
  5
66
330
1F
100
AcDbEntity
  8
0
  6
Continuous
 62
     7
370
    15
100
AcDbCircle
 10
81.5230461899
 20
121.0981730252
 30
0.0
 40
0.5000000000000214
100
AcDbArc
 50
270.0
 51
358.417296
  0
LINE
  5
67
330
1F
100
AcDbEntity
  8
0
  6
Continuous
 62
     7
370
    15
100
AcDbLine
 10
82.3096320158
 20
131.4633639608
 30
0.0
 11
82.022855439
 21
121.0843630837
 31
0.0
  0
ARC
  5
68
330
1F
100
AcDbEntity
  8
0
  6
Continuous
 62
     7
370
    15
100
AcDbCircle
 10
82.8594221899
 20
131.4481730252
 30
0.0
 40
0.5500000000000406
100
AcDbArc
 50
1.582704
 51
178.417296
  0
LINE
  5
69
330
1F
100
AcDbEntity
  8
0
  6
Continuous
 62
     7
370
    15
100
AcDbLine
 10
83.6959879407
 20
121.0843630837
 30
0.0
 11
83.4092123639
 21
131.4633639608
 31
0.0
  0
ARC
  5
6A
330
1F
100
AcDbEntity
  8
0
  6
Continuous
 62
     7
370
    15
100
AcDbCircle
 10
84.1957971899
 20
121.0981730252
 30
0.0
 40
0.5
100
AcDbArc
 50
181.582704
 51
270.0
  0
LINE
  5
6B
330
1F
100
AcDbEntity
  8
0
  6
Continuous
 62
     7
370
    15
100
AcDbLine
 10
86.3930461899
 20
120.5981730252
 30
0.0
 11
84.1957971899
 21
120.5981730252
 31
0.0
  0
ARC
  5
6C
330
1F
100
AcDbEntity
  8
0
  6
Continuous
 62
     7
370
    15
100
AcDbCircle
 10
86.3930461899
 20
121.0981730252
 30
0.0
 40
0.5000000000000356
100
AcDbArc
 50
270.0
 51
358.417296
  0
LINE
  5
6D
330
1F
100
AcDbEntity
  8
0
  6
Continuous
 62
     7
370
    15
100
AcDbLine
 10
87.1796320158
 20
131.4633639608
 30
0.0
 11
86.892855439
 21
121.0843630837
 31
0.0
  0
ARC
  5
6E
330
1F
100
AcDbEntity
  8
0
  6
Continuous
 62
     7
370
    15
100
AcDbCircle
 10
87.7294221899
 20
131.4481730252
 30
0.0
 40
0.5500000000000264
100
AcDbArc
 50
1.582704
 51
178.417296
  0
LINE
  5
6F
330
1F
100
AcDbEntity
  8
0
  6
Continuous
 62
     7
370
    15
100
AcDbLine
 10
88.5659879407
 20
121.0843630837
 30
0.0
 11
88.2792123639
 21
131.4633639608
 31
0.0
  0
ARC
  5
70
330
1F
100
AcDbEntity
  8
0
  6
Continuous
 62
     7
370
    15
100
AcDbCircle
 10
89.0657971899
 20
121.0981730252
 30
0.0
 40
0.5000000000000214
100
AcDbArc
 50
181.582704
 51
270.0
  0
LINE
  5
71
330
1F
100
AcDbEntity
  8
0
  6
Continuous
 62
     7
370
    15
100
AcDbLine
 10
91.8930461899
 20
120.5981730252
 30
0.0
 11
89.0657971899
 21
120.5981730252
 31
0.0
  0
ARC
  5
72
330
1F
100
AcDbEntity
  8
0
  6
Continuous
 62
     7
370
    15
100
AcDbCircle
 10
91.8930461899
 20
121.0981730252
 30
0.0
 40
0.5000000000000214
100
AcDbArc
 50
270.0
 51
358.417296
  0
LINE
  5
73
330
1F
100
AcDbEntity
  8
0
  6
Continuous
 62
     7
370
    15
100
AcDbLine
 10
92.6796320158
 20
131.4633639608
 30
0.0
 11
92.392855439
 21
121.0843630837
 31
0.0
  0
ARC
  5
74
330
1F
100
AcDbEntity
  8
0
  6
Continuous
 62
     7
370
    15
100
AcDbCircle
 10
93.2294221899
 20
131.4481730252
 30
0.0
 40
0.5500000000000406
100
AcDbArc
 50
1.582704
 51
178.417296
  0
LINE
  5
75
330
1F
100
AcDbEntity
  8
0
  6
Continuous
 62
     7
370
    15
100
AcDbLine
 10
94.0659879407
 20
121.0843630837
 30
0.0
 11
93.7792123639
 21
131.4633639608
 31
0.0
  0
ARC
  5
76
330
1F
100
AcDbEntity
  8
0
  6
Continuous
 62
     7
370
    15
100
AcDbCircle
 10
94.5657971899
 20
121.0981730252
 30
0.0
 40
0.5000000000000072
100
AcDbArc
 50
181.582704
 51
270.0
  0
LINE
  5
77
330
1F
100
AcDbEntity
  8
0
  6
Continuous
 62
     7
370
    15
100
AcDbLine
 10
96.7630461899
 20
120.5981730252
 30
0.0
 11
94.5657971899
 21
120.5981730252
 31
0.0
  0
ARC
  5
78
330
1F
100
AcDbEntity
  8
0
  6
Continuous
 62
     7
370
    15
100
AcDbCircle
 10
96.7630461899
 20
121.0981730252
 30
0.0
 40
0.4999999999999858
100
AcDbArc
 50
270.0
 51
358.417296
  0
LINE
  5
79
330
1F
100
AcDbEntity
  8
0
  6
Continuous
 62
     7
370
    15
100
AcDbLine
 10
97.5496320158
 20
131.4633639608
 30
0.0
 11
97.262855439
 21
121.0843630837
 31
0.0
  0
ARC
  5
7A
330
1F
100
AcDbEntity
  8
0
  6
Continuous
 62
     7
370
    15
100
AcDbCircle
 10
98.0994221899
 20
131.4481730252
 30
0.0
 40
0.5499999999999979
100
AcDbArc
 50
1.582704
 51
178.417296
  0
LINE
  5
7B
330
1F
100
AcDbEntity
  8
0
  6
Continuous
 62
     7
370
    15
100
AcDbLine
 10
98.9359879407
 20
121.0843630837
 30
0.0
 11
98.6492123639
 21
131.4633639608
 31
0.0
  0
ARC
  5
7C
330
1F
100
AcDbEntity
  8
0
  6
Continuous
 62
     7
370
    15
100
AcDbCircle
 10
99.4357971899
 20
121.0981730252
 30
0.0
 40
0.5000000000000214
100
AcDbArc
 50
181.582704
 51
270.0
  0
LINE
  5
7D
330
1F
100
AcDbEntity
  8
0
  6
Continuous
 62
     7
370
    15
100
AcDbLine
 10
101.6330461899
 20
120.5981730252
 30
0.0
 11
99.4357971899
 21
120.5981730252
 31
0.0
  0
ARC
  5
7E
330
1F
100
AcDbEntity
  8
0
  6
Continuous
 62
     7
370
    15
100
AcDbCircle
 10
101.6330461899
 20
121.0981730252
 30
0.0
 40
0.5000000000000214
100
AcDbArc
 50
270.0
 51
358.417296
  0
LINE
  5
7F
330
1F
100
AcDbEntity
  8
0
  6
Continuous
 62
     7
370
    15
100
AcDbLine
 10
102.4196320158
 20
131.4633639608
 30
0.0
 11
102.132855439
 21
121.0843630837
 31
0.0
  0
ARC
  5
80
330
1F
100
AcDbEntity
  8
0
  6
Continuous
 62
     7
370
    15
100
AcDbCircle
 10
102.9694221899
 20
131.4481730252
 30
0.0
 40
0.5500000000000406
100
AcDbArc
 50
1.582704
 51
178.417296
  0
LINE
  5
81
330
1F
100
AcDbEntity
  8
0
  6
Continuous
 62
     7
370
    15
100
AcDbLine
 10
103.8059879407
 20
121.0843630837
 30
0.0
 11
103.5192123639
 21
131.4633639608
 31
0.0
  0
ARC
  5
82
330
1F
100
AcDbEntity
  8
0
  6
Continuous
 62
     7
370
    15
100
AcDbCircle
 10
104.3057971899
 20
121.0981730252
 30
0.0
 40
0.5
100
AcDbArc
 50
181.582704
 51
270.0
  0
LINE
  5
83
330
1F
100
AcDbEntity
  8
0
  6
Continuous
 62
     7
370
    15
100
AcDbLine
 10
107.1330461899
 20
120.5981730252
 30
0.0
 11
104.3057971899
 21
120.5981730252
 31
0.0
  0
ARC
  5
84
330
1F
100
AcDbEntity
  8
0
  6
Continuous
 62
     7
370
    15
100
AcDbCircle
 10
107.1330461899
 20
121.0981730252
 30
0.0
 40
0.5000000000000356
100
AcDbArc
 50
270.0
 51
358.417296
  0
LINE
  5
85
330
1F
100
AcDbEntity
  8
0
  6
Continuous
 62
     7
370
    15
100
AcDbLine
 10
107.9196320158
 20
131.4633639608
 30
0.0
 11
107.632855439
 21
121.0843630837
 31
0.0
  0
ARC
  5
86
330
1F
100
AcDbEntity
  8
0
  6
Continuous
 62
     7
370
    15
100
AcDbCircle
 10
108.4694221899
 20
131.4481730252
 30
0.0
 40
0.5499999999999979
100
AcDbArc
 50
1.582704
 51
178.417296
  0
LINE
  5
87
330
1F
100
AcDbEntity
  8
0
  6
Continuous
 62
     7
370
    15
100
AcDbLine
 10
109.3059879407
 20
121.0843630837
 30
0.0
 11
109.0192123639
 21
131.4633639608
 31
0.0
  0
ARC
  5
88
330
1F
100
AcDbEntity
  8
0
  6
Continuous
 62
     7
370
    15
100
AcDbCircle
 10
109.8057971899
 20
121.0981730252
 30
0.0
 40
0.5000000000000214
100
AcDbArc
 50
181.582704
 51
270.0
  0
LINE
  5
89
330
1F
100
AcDbEntity
  8
0
  6
Continuous
 62
     7
370
    15
100
AcDbLine
 10
112.0030461899
 20
120.5981730252
 30
0.0
 11
109.8057971899
 21
120.5981730252
 31
0.0
  0
ARC
  5
8A
330
1F
100
AcDbEntity
  8
0
  6
Continuous
 62
     7
370
    15
100
AcDbCircle
 10
112.0030461899
 20
121.0981730252
 30
0.0
 40
0.5000000000000214
100
AcDbArc
 50
270.0
 51
358.417296
  0
LINE
  5
8B
330
1F
100
AcDbEntity
  8
0
  6
Continuous
 62
     7
370
    15
100
AcDbLine
 10
112.7896320158
 20
131.4633639608
 30
0.0
 11
112.502855439
 21
121.0843630837
 31
0.0
  0
ARC
  5
8C
330
1F
100
AcDbEntity
  8
0
  6
Continuous
 62
     7
370
    15
100
AcDbCircle
 10
113.3394221899
 20
131.4481730252
 30
0.0
 40
0.5500000000000406
100
AcDbArc
 50
1.582704
 51
178.417296
  0
LINE
  5
8D
330
1F
100
AcDbEntity
  8
0
  6
Continuous
 62
     7
370
    15
100
AcDbLine
 10
114.1759879407
 20
121.0843630837
 30
0.0
 11
113.8892123639
 21
131.4633639608
 31
0.0
  0
ARC
  5
8E
330
1F
100
AcDbEntity
  8
0
  6
Continuous
 62
     7
370
    15
100
AcDbCircle
 10
114.6757971899
 20
121.0981730252
 30
0.0
 40
0.5000000000000072
100
AcDbArc
 50
181.582704
 51
270.0
  0
LINE
  5
8F
330
1F
100
AcDbEntity
  8
0
  6
Continuous
 62
     7
370
    15
100
AcDbLine
 10
116.8730461899
 20
120.5981730252
 30
0.0
 11
114.6757971899
 21
120.5981730252
 31
0.0
  0
ARC
  5
90
330
1F
100
AcDbEntity
  8
0
  6
Continuous
 62
     7
370
    15
100
AcDbCircle
 10
116.8730461899
 20
121.0981730252
 30
0.0
 40
0.5000000000000356
100
AcDbArc
 50
270.0
 51
358.417296
  0
LINE
  5
91
330
1F
100
AcDbEntity
  8
0
  6
Continuous
 62
     7
370
    15
100
AcDbLine
 10
117.6596320158
 20
131.4633639608
 30
0.0
 11
117.372855439
 21
121.0843630837
 31
0.0
  0
ARC
  5
92
330
1F
100
AcDbEntity
  8
0
  6
Continuous
 62
     7
370
    15
100
AcDbCircle
 10
118.2094221899
 20
131.4481730252
 30
0.0
 40
0.5500000000000406
100
AcDbArc
 50
1.582704
 51
178.417296
  0
LINE
  5
93
330
1F
100
AcDbEntity
  8
0
  6
Continuous
 62
     7
370
    15
100
AcDbLine
 10
119.0459879407
 20
121.0843630837
 30
0.0
 11
118.7592123639
 21
131.4633639608
 31
0.0
  0
ARC
  5
94
330
1F
100
AcDbEntity
  8
0
  6
Continuous
 62
     7
370
    15
100
AcDbCircle
 10
119.5457971899
 20
121.0981730252
 30
0.0
 40
0.5000000000000072
100
AcDbArc
 50
181.582704
 51
270.0
  0
LINE
  5
95
330
1F
100
AcDbEntity
  8
0
  6
Continuous
 62
     7
370
    15
100
AcDbLine
 10
122.3730461899
 20
120.5981730252
 30
0.0
 11
119.5457971899
 21
120.5981730252
 31
0.0
  0
ARC
  5
96
330
1F
100
AcDbEntity
  8
0
  6
Continuous
 62
     7
370
    15
100
AcDbCircle
 10
122.3730461899
 20
121.0981730252
 30
0.0
 40
0.5000000000000214
100
AcDbArc
 50
270.0
 51
358.417296
  0
LINE
  5
97
330
1F
100
AcDbEntity
  8
0
  6
Continuous
 62
     7
370
    15
100
AcDbLine
 10
123.1596320158
 20
131.4633639608
 30
0.0
 11
122.872855439
 21
121.0843630837
 31
0.0
  0
ARC
  5
98
330
1F
100
AcDbEntity
  8
0
  6
Continuous
 62
     7
370
    15
100
AcDbCircle
 10
123.7094221899
 20
131.4481730252
 30
0.0
 40
0.5500000000000264
100
AcDbArc
 50
1.582704
 51
178.417296
  0
LINE
  5
99
330
1F
100
AcDbEntity
  8
0
  6
Continuous
 62
     7
370
    15
100
AcDbLine
 10
124.5459879407
 20
121.0843630837
 30
0.0
 11
124.2592123639
 21
131.4633639608
 31
0.0
  0
ARC
  5
9A
330
1F
100
AcDbEntity
  8
0
  6
Continuous
 62
     7
370
    15
100
AcDbCircle
 10
125.0457971899
 20
121.0981730252
 30
0.0
 40
0.5000000000000214
100
AcDbArc
 50
181.582704
 51
270.0
  0
LINE
  5
9B
330
1F
100
AcDbEntity
  8
0
  6
Continuous
 62
     7
370
    15
100
AcDbLine
 10
127.2430461899
 20
120.5981730252
 30
0.0
 11
125.0457971899
 21
120.5981730252
 31
0.0
  0
ARC
  5
9C
330
1F
100
AcDbEntity
  8
0
  6
Continuous
 62
     7
370
    15
100
AcDbCircle
 10
127.2430461899
 20
121.0981730252
 30
0.0
 40
0.5000000000000356
100
AcDbArc
 50
270.0
 51
358.417296
  0
LINE
  5
9D
330
1F
100
AcDbEntity
  8
0
  6
Continuous
 62
     7
370
    15
100
AcDbLine
 10
128.0296320158
 20
131.4633639608
 30
0.0
 11
127.742855439
 21
121.0843630837
 31
0.0
  0
ARC
  5
9E
330
1F
100
AcDbEntity
  8
0
  6
Continuous
 62
     7
370
    15
100
AcDbCircle
 10
128.5794221899
 20
131.4481730252
 30
0.0
 40
0.5500000000000406
100
AcDbArc
 50
1.582704
 51
178.417296
  0
LINE
  5
9F
330
1F
100
AcDbEntity
  8
0
  6
Continuous
 62
     7
370
    15
100
AcDbLine
 10
129.4159879407
 20
121.0843630837
 30
0.0
 11
129.1292123639
 21
131.4633639608
 31
0.0
  0
ARC
  5
A0
330
1F
100
AcDbEntity
  8
0
  6
Continuous
 62
     7
370
    15
100
AcDbCircle
 10
129.9157971899
 20
121.0981730252
 30
0.0
 40
0.5000000000000214
100
AcDbArc
 50
181.582704
 51
270.0
  0
LINE
  5
A1
330
1F
100
AcDbEntity
  8
0
  6
Continuous
 62
     7
370
    15
100
AcDbLine
 10
132.1130461899
 20
120.5981730252
 30
0.0
 11
129.9157971899
 21
120.5981730252
 31
0.0
  0
ARC
  5
A2
330
1F
100
AcDbEntity
  8
0
  6
Continuous
 62
     7
370
    15
100
AcDbCircle
 10
132.1130461899
 20
121.0981730252
 30
0.0
 40
0.5000000000000214
100
AcDbArc
 50
270.0
 51
358.417296
  0
LINE
  5
A3
330
1F
100
AcDbEntity
  8
0
  6
Continuous
 62
     7
370
    15
100
AcDbLine
 10
132.8996320158
 20
131.4633639608
 30
0.0
 11
132.612855439
 21
121.0843630837
 31
0.0
  0
ARC
  5
A4
330
1F
100
AcDbEntity
  8
0
  6
Continuous
 62
     7
370
    15
100
AcDbCircle
 10
133.4494221899
 20
131.4481730252
 30
0.0
 40
0.5500000000000406
100
AcDbArc
 50
1.582704
 51
178.417296
  0
LINE
  5
A5
330
1F
100
AcDbEntity
  8
0
  6
Continuous
 62
     7
370
    15
100
AcDbLine
 10
134.2859879407
 20
121.0843630837
 30
0.0
 11
133.9992123639
 21
131.4633639608
 31
0.0
  0
ARC
  5
A6
330
1F
100
AcDbEntity
  8
0
  6
Continuous
 62
     7
370
    15
100
AcDbCircle
 10
134.7857971899
 20
121.0981730252
 30
0.0
 40
0.5000000000000214
100
AcDbArc
 50
181.582704
 51
270.0
  0
LINE
  5
A7
330
1F
100
AcDbEntity
  8
0
  6
Continuous
 62
     7
370
    15
100
AcDbLine
 10
137.6130461899
 20
120.5981730252
 30
0.0
 11
134.7857971899
 21
120.5981730252
 31
0.0
  0
ARC
  5
A8
330
1F
100
AcDbEntity
  8
0
  6
Continuous
 62
     7
370
    15
100
AcDbCircle
 10
137.6130461899
 20
121.0981728877
 30
0.0
 40
0.4999998624809621
100
AcDbArc
 50
270.0
 51
358.4174030586
  0
LINE
  5
A9
330
1F
100
AcDbEntity
  8
0
  6
Continuous
 62
     7
370
    15
100
AcDbLine
 10
138.3996313273
 20
131.4633638839
 30
0.0
 11
138.1128553273
 21
121.0843638839
 31
0.0
  0
ARC
  5
AA
330
1F
100
AcDbEntity
  8
0
  6
Continuous
 62
     7
370
    15
100
AcDbCircle
 10
138.9494218277
 20
131.4481728977
 30
0.0
 40
0.5500003276101426
100
AcDbArc
 50
1.5827112016
 51
178.4172916757
  0
LINE
  5
AB
330
1F
100
AcDbEntity
  8
0
  6
Continuous
 62
     7
370
    15
100
AcDbLine
 10
139.7859883273
 20
121.0843639115
 30
0.0
 11
139.4992123273
 21
131.4633639115
 31
0.0
  0
ARC
  5
AC
330
1F
100
AcDbEntity
  8
0
  6
Continuous
 62
     7
370
    15
100
AcDbCircle
 10
140.2857974648
 20
121.0981729153
 30
0.0
 40
0.4999998624810047
100
AcDbArc
 50
181.5825969414
 51
270.0
  0
LINE
  5
AD
330
1F
100
AcDbEntity
  8
0
  6
Continuous
 62
     7
370
    15
100
AcDbLine
 10
142.4830464648
 20
120.5981730528
 30
0.0
 11
140.2857974648
 21
120.5981730528
 31
0.0
  0
ARC
  5
AE
330
1F
100
AcDbEntity
  8
0
  6
Continuous
 62
     7
370
    15
100
AcDbCircle
 10
142.4830464648
 20
121.0981729153
 30
0.0
 40
0.4999998624809763
100
AcDbArc
 50
270.0
 51
358.4174030586
  0
LINE
  5
AF
330
1F
100
AcDbEntity
  8
0
  6
Continuous
 62
     7
370
    15
100
AcDbLine
 10
143.2696316023
 20
131.4633639115
 30
0.0
 11
142.9828556023
 21
121.0843639115
 31
0.0
  0
ARC
  5
B0
330
1F
100
AcDbEntity
  8
0
  6
Continuous
 62
     7
370
    15
100
AcDbCircle
 10
143.8194221027
 20
131.4481729253
 30
0.0
 40
0.5500003276101455
100
AcDbArc
 50
1.5827112016
 51
178.4172916757
  0
LINE
  5
B1
330
1F
100
AcDbEntity
  8
0
  6
Continuous
 62
     7
370
    15
100
AcDbLine
 10
144.6559886023
 20
121.0843639391
 30
0.0
 11
144.3692126023
 21
131.4633639391
 31
0.0
  0
ARC
  5
B2
330
1F
100
AcDbEntity
  8
0
  6
Continuous
 62
     7
370
    15
100
AcDbCircle
 10
145.1557977397
 20
121.0981729429
 30
0.0
 40
0.4999998624809763
100
AcDbArc
 50
181.5825969414
 51
270.0
  0
LINE
  5
B3
330
1F
100
AcDbEntity
  8
0
  6
Continuous
 62
     7
370
    15
100
AcDbLine
 10
147.3530467397
 20
120.5981730804
 30
0.0
 11
145.1557977397
 21
120.5981730804
 31
0.0
  0
ARC
  5
B4
330
1F
100
AcDbEntity
  8
0
  6
Continuous
 62
     7
370
    15
100
AcDbCircle
 10
147.3530467397
 20
121.0981729429
 30
0.0
 40
0.4999998624809796
100
AcDbArc
 50
270.0
 51
358.4174030586
  0
LINE
  5
B5
330
1F
100
AcDbEntity
  8
0
  6
Continuous
 62
     7
370
    15
100
AcDbLine
 10
148.1396318772
 20
131.4633639391
 30
0.0
 11
147.8528558772
 21
121.0843639391
 31
0.0
  0
ARC
  5
B6
330
1F
100
AcDbEntity
  8
0
  6
Continuous
 62
     7
370
    15
100
AcDbCircle
 10
148.6894223776
 20
131.4481729529
 30
0.0
 40
0.5500003276101179
100
AcDbArc
 50
1.5827112016
 51
178.4172916757
  0
LINE
  5
B7
330
1F
100
AcDbEntity
  8
0
  6
Continuous
 62
     7
370
    15
100
AcDbLine
 10
149.5259888772
 20
121.0843639667
 30
0.0
 11
149.2392128772
 21
131.4633639667
 31
0.0
  0
ARC
  5
B8
330
1F
100
AcDbEntity
  8
0
  6
Continuous
 62
     7
370
    15
100
AcDbCircle
 10
150.0257980147
 20
121.0981729705
 30
0.0
 40
0.4999998624809511
100
AcDbArc
 50
181.5825969414
 51
270.0
  0
LINE
  5
B9
330
1F
100
AcDbEntity
  8
0
  6
Continuous
 62
     7
370
    15
100
AcDbLine
 10
152.8530470147
 20
120.598173108
 30
0.0
 11
150.0257980147
 21
120.598173108
 31
0.0
  0
ARC
  5
BA
330
1F
100
AcDbEntity
  8
0
  6
Continuous
 62
     7
370
    15
100
AcDbCircle
 10
152.8530470147
 20
121.0981729705
 30
0.0
 40
0.4999998624809796
100
AcDbArc
 50
270.0
 51
358.4174030586
  0
LINE
  5
BB
330
1F
100
AcDbEntity
  8
0
  6
Continuous
 62
     7
370
    15
100
AcDbLine
 10
153.6396321521
 20
131.4633639667
 30
0.0
 11
153.3528561521
 21
121.0843639667
 31
0.0
  0
ARC
  5
BC
330
1F
100
AcDbEntity
  8
0
  6
Continuous
 62
     7
370
    15
100
AcDbCircle
 10
154.1894226525
 20
131.4481729805
 30
0.0
 40
0.5500003276101463
100
AcDbArc
 50
1.5827112016
 51
178.4172916757
  0
LINE
  5
BD
330
1F
100
AcDbEntity
  8
0
  6
Continuous
 62
     7
370
    15
100
AcDbLine
 10
155.0259891521
 20
121.0843639943
 30
0.0
 11
154.7392131521
 21
131.4633639943
 31
0.0
  0
ARC
  5
BE
330
1F
100
AcDbEntity
  8
0
  6
Continuous
 62
     7
370
    15
100
AcDbCircle
 10
155.5257982896
 20
121.0981729981
 30
0.0
 40
0.4999998624809511
100
AcDbArc
 50
181.5825969414
 51
270.0
  0
LINE
  5
BF
330
1F
100
AcDbEntity
  8
0
  6
Continuous
 62
     7
370
    15
100
AcDbLine
 10
157.7230472896
 20
120.5981731356
 30
0.0
 11
155.5257982896
 21
120.5981731356
 31
0.0
  0
ARC
  5
C0
330
1F
100
AcDbEntity
  8
0
  6
Continuous
 62
     7
370
    15
100
AcDbCircle
 10
157.7230472896
 20
121.0981729981
 30
0.0
 40
0.499999862481008
100
AcDbArc
 50
270.0
 51
358.4174030586
  0
LINE
  5
C1
330
1F
100
AcDbEntity
  8
0
  6
Continuous
 62
     7
370
    15
100
AcDbLine
 10
158.5096324271
 20
131.4633639943
 30
0.0
 11
158.2228564271
 21
121.0843639943
 31
0.0
  0
ARC
  5
C2
330
1F
100
AcDbEntity
  8
0
  6
Continuous
 62
     7
370
    15
100
AcDbCircle
 10
159.0594229275
 20
131.4481730081
 30
0.0
 40
0.550000327610171
100
AcDbArc
 50
1.5827112016
 51
178.4172916757
  0
LINE
  5
C3
330
1F
100
AcDbEntity
  8
0
  6
Continuous
 62
     7
370
    15
100
AcDbLine
 10
159.8959894271
 20
121.0843640219
 30
0.0
 11
159.6092134271
 21
131.4633640219
 31
0.0
  0
ARC
  5
C4
330
1F
100
AcDbEntity
  8
0
  6
Continuous
 62
     7
370
    15
100
AcDbCircle
 10
160.3957985645
 20
121.0981730257
 30
0.0
 40
0.4999998624809515
100
AcDbArc
 50
181.5825969414
 51
270.0
  0
LINE
  5
C5
330
1F
100
AcDbEntity
  8
0
  6
Continuous
 62
     7
370
    15
100
AcDbLine
 10
162.5930475645
 20
120.5981731632
 30
0.0
 11
160.3957985645
 21
120.5981731632
 31
0.0
  0
ARC
  5
C6
330
1F
100
AcDbEntity
  8
0
  6
Continuous
 62
     7
370
    15
100
AcDbCircle
 10
162.5930475645
 20
121.0981730257
 30
0.0
 40
0.4999998624809799
100
AcDbArc
 50
270.0
 51
358.4174030586
  0
LINE
  5
C7
330
1F
100
AcDbEntity
  8
0
  6
Continuous
 62
     7
370
    15
100
AcDbLine
 10
163.379632702
 20
131.4633640219
 30
0.0
 11
163.092856702
 21
121.0843640219
 31
0.0
  0
ARC
  5
C8
330
1F
100
AcDbEntity
  8
0
  6
Continuous
 62
     7
370
    15
100
AcDbCircle
 10
163.9294232024
 20
131.4481730357
 30
0.0
 40
0.550000327610171
100
AcDbArc
 50
1.5827112016
 51
178.4172916757
  0
LINE
  5
C9
330
1F
100
AcDbEntity
  8
0
  6
Continuous
 62
     7
370
    15
100
AcDbLine
 10
164.765989702
 20
121.0843640495
 30
0.0
 11
164.479213702
 21
131.4633640495
 31
0.0
  0
ARC
  5
CA
330
1F
100
AcDbEntity
  8
0
  6
Continuous
 62
     7
370
    15
100
AcDbCircle
 10
165.2657988395
 20
121.0981730533
 30
0.0
 40
0.4999998624809479
100
AcDbArc
 50
181.5825969414
 51
270.0
  0
LINE
  5
CB
330
1F
100
AcDbEntity
  8
0
  6
Continuous
 62
     7
370
    15
100
AcDbLine
 10
168.0930478395
 20
120.5981731908
 30
0.0
 11
165.2657988395
 21
120.5981731908
 31
0.0
  0
ARC
  5
CC
330
1F
100
AcDbEntity
  8
0
  6
Continuous
 62
     7
370
    15
100
AcDbCircle
 10
168.0930478395
 20
121.0981730533
 30
0.0
 40
0.4999998624809763
100
AcDbArc
 50
270.0
 51
358.4174030586
  0
LINE
  5
CD
330
1F
100
AcDbEntity
  8
0
  6
Continuous
 62
     7
370
    15
100
AcDbLine
 10
168.8796329769
 20
131.4633640495
 30
0.0
 11
168.5928569769
 21
121.0843640495
 31
0.0
  0
ARC
  5
CE
330
1F
100
AcDbEntity
  8
0
  6
Continuous
 62
     7
370
    15
100
AcDbCircle
 10
169.4294234773
 20
131.4481730633
 30
0.0
 40
0.5500003276101455
100
AcDbArc
 50
1.5827112016
 51
178.4172916757
  0
LINE
  5
CF
330
1F
100
AcDbEntity
  8
0
  6
Continuous
 62
     7
370
    15
100
AcDbLine
 10
170.2659899769
 20
121.0843640771
 30
0.0
 11
169.9792139769
 21
131.4633640771
 31
0.0
  0
ARC
  5
D0
330
1F
100
AcDbEntity
  8
0
  6
Continuous
 62
     7
370
    15
100
AcDbCircle
 10
170.7657991144
 20
121.0981730809
 30
0.0
 40
0.4999998624809511
100
AcDbArc
 50
181.5825969414
 51
270.0
  0
LINE
  5
D1
330
1F
100
AcDbEntity
  8
0
  6
Continuous
 62
     7
370
    15
100
AcDbLine
 10
172.9630481144
 20
120.5981732184
 30
0.0
 11
170.7657991144
 21
120.5981732184
 31
0.0
  0
ARC
  5
D2
330
1F
100
AcDbEntity
  8
0
  6
Continuous
 62
     7
370
    15
100
AcDbCircle
 10
172.9630481144
 20
121.0981730809
 30
0.0
 40
0.4999998624809621
100
AcDbArc
 50
270.0
 51
358.4174030586
  0
LINE
  5
D3
330
1F
100
AcDbEntity
  8
0
  6
Continuous
 62
     7
370
    15
100
AcDbLine
 10
173.7496332519
 20
131.4633640771
 30
0.0
 11
173.4628572519
 21
121.0843640771
 31
0.0
  0
ARC
  5
D4
330
1F
100
AcDbEntity
  8
0
  6
Continuous
 62
     7
370
    15
100
AcDbCircle
 10
174.2994237523
 20
131.4481730909
 30
0.0
 40
0.5500003276101455
100
AcDbArc
 50
1.5827112016
 51
178.4172916757
  0
LINE
  5
D5
330
1F
100
AcDbEntity
  8
0
  6
Continuous
 62
     7
370
    15
100
AcDbLine
 10
175.1359902519
 20
121.0843641047
 30
0.0
 11
174.8492142519
 21
131.4633641047
 31
0.0
  0
ARC
  5
D6
330
1F
100
AcDbEntity
  8
0
  6
Continuous
 62
     7
370
    15
100
AcDbCircle
 10
175.6357993893
 20
121.0981731085
 30
0.0
 40
0.4999998624809479
100
AcDbArc
 50
181.5825969414
 51
270.0
  0
LINE
  5
D7
330
1F
100
AcDbEntity
  8
0
  6
Continuous
 62
     7
370
    15
100
AcDbLine
 10
177.8330483893
 20
120.5981732461
 30
0.0
 11
175.6357993893
 21
120.5981732461
 31
0.0
  0
ARC
  5
D8
330
1F
100
AcDbEntity
  8
0
  6
Continuous
 62
     7
370
    15
100
AcDbCircle
 10
177.8330483893
 20
121.0981731085
 30
0.0
 40
0.4999998624809796
100
AcDbArc
 50
270.0
 51
358.4174030586
  0
LINE
  5
D9
330
1F
100
AcDbEntity
  8
0
  6
Continuous
 62
     7
370
    15
100
AcDbLine
 10
178.6196335268
 20
131.4633641047
 30
0.0
 11
178.3328575268
 21
121.0843641047
 31
0.0
  0
ARC
  5
DA
330
1F
100
AcDbEntity
  8
0
  6
Continuous
 62
     7
370
    15
100
AcDbCircle
 10
179.1694240272
 20
131.4481731185
 30
0.0
 40
0.5500003276101179
100
AcDbArc
 50
1.5827112016
 51
178.4172916757
  0
LINE
  5
DB
330
1F
100
AcDbEntity
  8
0
  6
Continuous
 62
     7
370
    15
100
AcDbLine
 10
180.0059905268
 20
121.0843641323
 30
0.0
 11
179.7192145268
 21
131.4633641323
 31
0.0
  0
ARC
  5
DC
330
1F
100
AcDbEntity
  8
0
  6
Continuous
 62
     7
370
    15
100
AcDbCircle
 10
180.5057996643
 20
121.0981731361
 30
0.0
 40
0.4999998624809515
100
AcDbArc
 50
181.5825969414
 51
270.0
  0
LINE
  5
DD
330
1F
100
AcDbEntity
  8
0
  6
Continuous
 62
     7
370
    15
100
AcDbLine
 10
183.3330486643
 20
120.5981732737
 30
0.0
 11
180.5057996643
 21
120.5981732737
 31
0.0
  0
ARC
  5
DE
330
1F
100
AcDbEntity
  8
0
  6
Continuous
 62
     7
370
    15
100
AcDbCircle
 10
183.3330486643
 20
121.0981731361
 30
0.0
 40
0.4999998624809799
100
AcDbArc
 50
270.0
 51
358.4174030586
  0
LINE
  5
DF
330
1F
100
AcDbEntity
  8
0
  6
Continuous
 62
     7
370
    15
100
AcDbLine
 10
184.1196338017
 20
131.4633641323
 30
0.0
 11
183.8328578017
 21
121.0843641323
 31
0.0
  0
ARC
  5
E0
330
1F
100
AcDbEntity
  8
0
  6
Continuous
 62
     7
370
    15
100
AcDbCircle
 10
184.6694243021
 20
131.4481731461
 30
0.0
 40
0.5500003276101426
100
AcDbArc
 50
1.5827112016
 51
178.4172916757
  0
LINE
  5
E1
330
1F
100
AcDbEntity
  8
0
  6
Continuous
 62
     7
370
    15
100
AcDbLine
 10
185.5059908017
 20
121.08436416
 30
0.0
 11
185.2192148017
 21
131.46336416
 31
0.0
  0
ARC
  5
E2
330
1F
100
AcDbEntity
  8
0
  6
Continuous
 62
     7
370
    15
100
AcDbCircle
 10
186.0057999392
 20
121.0981731638
 30
0.0
 40
0.4999998624809511
100
AcDbArc
 50
181.5825969414
 51
270.0
  0
LINE
  5
E3
330
1F
100
AcDbEntity
  8
0
  6
Continuous
 62
     7
370
    15
100
AcDbLine
 10
188.2030489392
 20
120.5981733013
 30
0.0
 11
186.0057999392
 21
120.5981733013
 31
0.0
  0
ARC
  5
E4
330
1F
100
AcDbEntity
  8
0
  6
Continuous
 62
     7
370
    15
100
AcDbCircle
 10
188.2030489392
 20
121.0981731638
 30
0.0
 40
0.4999998624809796
100
AcDbArc
 50
270.0
 51
358.4174030586
  0
LINE
  5
E5
330
1F
100
AcDbEntity
  8
0
  6
Continuous
 62
     7
370
    15
100
AcDbLine
 10
188.9896340767
 20
131.46336416
 30
0.0
 11
188.7028580767
 21
121.08436416
 31
0.0
  0
ARC
  5
E6
330
1F
100
AcDbEntity
  8
0
  6
Continuous
 62
     7
370
    15
100
AcDbCircle
 10
189.5394245771
 20
131.4481731738
 30
0.0
 40
0.5500003276101463
100
AcDbArc
 50
1.5827112016
 51
178.4172916757
  0
LINE
  5
E7
330
1F
100
AcDbEntity
  8
0
  6
Continuous
 62
     7
370
    15
100
AcDbLine
 10
190.3759910767
 20
121.0843641876
 30
0.0
 11
190.0892150767
 21
131.4633641876
 31
0.0
  0
ARC
  5
E8
330
1F
100
AcDbEntity
  8
0
  6
Continuous
 62
     7
370
    15
100
AcDbCircle
 10
190.8758002141
 20
121.0981731914
 30
0.0
 40
0.4999998624809511
100
AcDbArc
 50
181.5825969414
 51
270.0
  0
LINE
  5
E9
330
1F
100
AcDbEntity
  8
0
  6
Continuous
 62
     7
370
    15
100
AcDbLine
 10
193.0730492141
 20
120.5981733289
 30
0.0
 11
190.8758002141
 21
120.5981733289
 31
0.0
  0
ARC
  5
EA
330
1F
100
AcDbEntity
  8
0
  6
Continuous
 62
     7
370
    15
100
AcDbCircle
 10
193.0730492141
 20
121.0981731914
 30
0.0
 40
0.499999862481036
100
AcDbArc
 50
270.0
 51
358.4174030586
  0
LINE
  5
EB
330
1F
100
AcDbEntity
  8
0
  6
Continuous
 62
     7
370
    15
100
AcDbLine
 10
193.8596343516
 20
131.4633641876
 30
0.0
 11
193.5728583516
 21
121.0843641876
 31
0.0
  0
ARC
  5
EC
330
1F
100
AcDbEntity
  8
0
  6
Continuous
 62
     7
370
    15
100
AcDbCircle
 10
194.409424852
 20
131.4481732014
 30
0.0
 40
0.5500003276102002
100
AcDbArc
 50
1.5827112016
 51
178.4172916757
  0
LINE
  5
ED
330
1F
100
AcDbEntity
  8
0
  6
Continuous
 62
     7
370
    15
100
AcDbLine
 10
195.2459913516
 20
121.0843642152
 30
0.0
 11
194.9592153516
 21
131.4633642152
 31
0.0
  0
ARC
  5
EE
330
1F
100
AcDbEntity
  8
0
  6
Continuous
 62
     7
370
    15
100
AcDbCircle
 10
195.7458004891
 20
121.098173219
 30
0.0
 40
0.4999998624809515
100
AcDbArc
 50
181.5825969414
 51
270.0
  0
LINE
  5
EF
330
1F
100
AcDbEntity
  8
0
  6
Continuous
 62
     7
370
    15
100
AcDbLine
 10
198.5730494891
 20
120.5981733565
 30
0.0
 11
195.7458004891
 21
120.5981733565
 31
0.0
  0
ARC
  5
F0
330
1F
100
AcDbEntity
  8
0
  6
Continuous
 62
     7
370
    15
100
AcDbCircle
 10
198.5730494891
 20
121.098173219
 30
0.0
 40
0.4999998624809905
100
AcDbArc
 50
270.0
 51
358.4174030586
  0
LINE
  5
F1
330
1F
100
AcDbEntity
  8
0
  6
Continuous
 62
     7
370
    15
100
AcDbLine
 10
199.3596346265
 20
131.4633642152
 30
0.0
 11
199.0728586265
 21
121.0843642152
 31
0.0
  0
ARC
  5
F2
330
1F
100
AcDbEntity
  8
0
  6
Continuous
 62
     7
370
    15
100
AcDbCircle
 10
199.9094251269
 20
131.448173229
 30
0.0
 40
0.5500003276101463
100
AcDbArc
 50
1.5827112016
 51
178.4172916757
  0
LINE
  5
F3
330
1F
100
AcDbEntity
  8
0
  6
Continuous
 62
     7
370
    15
100
AcDbLine
 10
200.7459916265
 20
121.0843642428
 30
0.0
 11
200.4592156265
 21
131.4633642428
 31
0.0
  0
ARC
  5
F4
330
1F
100
AcDbEntity
  8
0
  6
Continuous
 62
     7
370
    15
100
AcDbCircle
 10
201.245800764
 20
121.0981732466
 30
0.0
 40
0.4999998624809515
100
AcDbArc
 50
181.5825969414
 51
270.0
  0
LINE
  5
F5
330
1F
100
AcDbEntity
  8
0
  6
Continuous
 62
     7
370
    15
100
AcDbLine
 10
203.443049764
 20
120.5981733841
 30
0.0
 11
201.245800764
 21
120.5981733841
 31
0.0
  0
ARC
  5
F6
330
1F
100
AcDbEntity
  8
0
  6
Continuous
 62
     7
370
    15
100
AcDbCircle
 10
203.443049764
 20
121.0981732466
 30
0.0
 40
0.4999998624809621
100
AcDbArc
 50
270.0
 51
358.4174030586
  0
LINE
  5
F7
330
1F
100
AcDbEntity
  8
0
  6
Continuous
 62
     7
370
    15
100
AcDbLine
 10
204.2296349015
 20
131.4633642428
 30
0.0
 11
203.9428589015
 21
121.0843642428
 31
0.0
  0
ARC
  5
F8
330
1F
100
AcDbEntity
  8
0
  6
Continuous
 62
     7
370
    15
100
AcDbCircle
 10
204.7794254019
 20
131.4481732566
 30
0.0
 40
0.5500003276101463
100
AcDbArc
 50
1.5827112016
 51
178.4172916757
  0
LINE
  5
F9
330
1F
100
AcDbEntity
  8
0
  6
Continuous
 62
     7
370
    15
100
AcDbLine
 10
205.6159919015
 20
121.0843642704
 30
0.0
 11
205.3292159015
 21
131.4633642704
 31
0.0
  0
ARC
  5
FA
330
1F
100
AcDbEntity
  8
0
  6
Continuous
 62
     7
370
    15
100
AcDbCircle
 10
206.1158010389
 20
121.0981732742
 30
0.0
 40
0.4999998624809511
100
AcDbArc
 50
181.5825969414
 51
270.0
  0
LINE
  5
FB
330
1F
100
AcDbEntity
  8
0
  6
Continuous
 62
     7
370
    15
100
AcDbLine
 10
208.3130500389
 20
120.5981734117
 30
0.0
 11
206.1158010389
 21
120.5981734117
 31
0.0
  0
ARC
  5
FC
330
1F
100
AcDbEntity
  8
0
  6
Continuous
 62
     7
370
    15
100
AcDbCircle
 10
208.3130500389
 20
121.0981732742
 30
0.0
 40
0.4999998624809763
100
AcDbArc
 50
270.0
 51
358.4174030586
  0
LINE
  5
FD
330
1F
100
AcDbEntity
  8
0
  6
Continuous
 62
     7
370
    15
100
AcDbLine
 10
209.0996351764
 20
131.4633642704
 30
0.0
 11
208.8128591764
 21
121.0843642704
 31
0.0
  0
ARC
  5
FE
330
1F
100
AcDbEntity
  8
0
  6
Continuous
 62
     7
370
    15
100
AcDbCircle
 10
209.6494256768
 20
131.4481732842
 30
0.0
 40
0.5500003276101463
100
AcDbArc
 50
1.5827112016
 51
178.4172916757
  0
LINE
  5
FF
330
1F
100
AcDbEntity
  8
0
  6
Continuous
 62
     7
370
    15
100
AcDbLine
 10
210.4859921764
 20
121.084364298
 30
0.0
 11
210.1992161764
 21
131.463364298
 31
0.0
  0
ARC
  5
100
330
1F
100
AcDbEntity
  8
0
  6
Continuous
 62
     7
370
    15
100
AcDbCircle
 10
210.9858013139
 20
121.0981733018
 30
0.0
 40
0.4999998624809479
100
AcDbArc
 50
181.5825969414
 51
270.0
  0
LINE
  5
101
330
1F
100
AcDbEntity
  8
0
  6
Continuous
 62
     7
370
    15
100
AcDbLine
 10
213.1830503139
 20
120.5981734393
 30
0.0
 11
210.9858013139
 21
120.5981734393
 31
0.0
  0
ARC
  5
102
330
1F
100
AcDbEntity
  8
0
  6
Continuous
 62
     7
370
    15
100
AcDbCircle
 10
213.1830503139
 20
121.0981733018
 30
0.0
 40
0.4999998624809796
100
AcDbArc
 50
270.0
 51
358.4174030586
  0
LINE
  5
103
330
1F
100
AcDbEntity
  8
0
  6
Continuous
 62
     7
370
    15
100
AcDbLine
 10
213.9696354513
 20
131.463364298
 30
0.0
 11
213.6828594513
 21
121.084364298
 31
0.0
  0
ARC
  5
104
330
1F
100
AcDbEntity
  8
0
  6
Continuous
 62
     7
370
    15
100
AcDbCircle
 10
214.5194259517
 20
131.4481733118
 30
0.0
 40
0.550000327610171
100
AcDbArc
 50
1.5827112016
 51
178.4172916757
  0
LINE
  5
105
330
1F
100
AcDbEntity
  8
0
  6
Continuous
 62
     7
370
    15
100
AcDbLine
 10
215.3559924513
 20
121.0843643256
 30
0.0
 11
215.0692164513
 21
131.4633643256
 31
0.0
  0
ARC
  5
106
330
1F
100
AcDbEntity
  8
0
  6
Continuous
 62
     7
370
    15
100
AcDbCircle
 10
215.8558015888
 20
121.0981733294
 30
0.0
 40
0.4999998624809763
100
AcDbArc
 50
181.5825969414
 51
270.0
  0
LINE
  5
107
330
1F
100
AcDbEntity
  8
0
  6
Continuous
 62
     7
370
    15
100
AcDbLine
 10
218.6830505888
 20
120.5981734669
 30
0.0
 11
215.8558015888
 21
120.5981734669
 31
0.0
  0
ARC
  5
108
330
1F
100
AcDbEntity
  8
0
  6
Continuous
 62
     7
370
    15
100
AcDbCircle
 10
218.6830505888
 20
121.0981733294
 30
0.0
 40
0.4999998624809515
100
AcDbArc
 50
270.0
 51
358.4174030586
  0
LINE
  5
109
330
1F
100
AcDbEntity
  8
0
  6
Continuous
 62
     7
370
    15
100
AcDbLine
 10
219.4696357263
 20
131.4633643256
 30
0.0
 11
219.1828597263
 21
121.0843643256
 31
0.0
  0
ARC
  5
10A
330
1F
100
AcDbEntity
  8
0
  6
Continuous
 62
     7
370
    15
100
AcDbCircle
 10
220.0194262267
 20
131.4481733394
 30
0.0
 40
0.5500003276101738
100
AcDbArc
 50
1.5827112016
 51
178.4172916757
  0
LINE
  5
10B
330
1F
100
AcDbEntity
  8
0
  6
Continuous
 62
     7
370
    15
100
AcDbLine
 10
220.8559927263
 20
121.0843643532
 30
0.0
 11
220.5692167263
 21
131.4633643532
 31
0.0
  0
ARC
  5
10C
330
1F
100
AcDbEntity
  8
0
  6
Continuous
 62
     7
370
    15
100
AcDbCircle
 10
221.3558018637
 20
121.098173357
 30
0.0
 40
0.4999998624809799
100
AcDbArc
 50
181.5825969414
 51
270.0
  0
LINE
  5
10D
330
1F
100
AcDbEntity
  8
0
  6
Continuous
 62
     7
370
    15
100
AcDbLine
 10
223.5530508637
 20
120.5981734945
 30
0.0
 11
221.3558018637
 21
120.5981734945
 31
0.0
  0
ARC
  5
10E
330
1F
100
AcDbEntity
  8
0
  6
Continuous
 62
     7
370
    15
100
AcDbCircle
 10
223.5530508637
 20
121.098173357
 30
0.0
 40
0.4999998624809515
100
AcDbArc
 50
270.0
 51
358.4174030586
  0
LINE
  5
10F
330
1F
100
AcDbEntity
  8
0
  6
Continuous
 62
     7
370
    15
100
AcDbLine
 10
224.3396360012
 20
131.4633643532
 30
0.0
 11
224.0528600012
 21
121.0843643532
 31
0.0
  0
ARC
  5
110
330
1F
100
AcDbEntity
  8
0
  6
Continuous
 62
     7
370
    15
100
AcDbCircle
 10
224.8894265016
 20
131.448173367
 30
0.0
 40
0.5500003276101455
100
AcDbArc
 50
1.5827112016
 51
178.4172916757
  0
LINE
  5
111
330
1F
100
AcDbEntity
  8
0
  6
Continuous
 62
     7
370
    15
100
AcDbLine
 10
225.7259930012
 20
121.0843643808
 30
0.0
 11
225.4392170012
 21
131.4633643808
 31
0.0
  0
ARC
  5
112
330
1F
100
AcDbEntity
  8
0
  6
Continuous
 62
     7
370
    15
100
AcDbCircle
 10
226.2258021387
 20
121.0981733846
 30
0.0
 40
0.4999998624810075
100
AcDbArc
 50
181.5825969414
 51
270.0
  0
LINE
  5
113
330
1F
100
AcDbEntity
  8
0
  6
Continuous
 62
     7
370
    15
100
AcDbLine
 10
229.0530511387
 20
120.5981735221
 30
0.0
 11
226.2258021387
 21
120.5981735221
 31
0.0
  0
ARC
  5
114
330
1F
100
AcDbEntity
  8
0
  6
Continuous
 62
     7
370
    15
100
AcDbCircle
 10
229.0530511387
 20
121.0981733846
 30
0.0
 40
0.4999998624809479
100
AcDbArc
 50
270.0
 51
358.4174030586
  0
LINE
  5
115
330
1F
100
AcDbEntity
  8
0
  6
Continuous
 62
     7
370
    15
100
AcDbLine
 10
229.8396362761
 20
131.4633643808
 30
0.0
 11
229.5528602761
 21
121.0843643808
 31
0.0
  0
ARC
  5
116
330
1F
100
AcDbEntity
  8
0
  6
Continuous
 62
     7
370
    15
100
AcDbCircle
 10
230.3894267765
 20
131.4481733946
 30
0.0
 40
0.5500003276101463
100
AcDbArc
 50
1.5827112016
 51
178.4172916757
  0
LINE
  5
117
330
1F
100
AcDbEntity
  8
0
  6
Continuous
 62
     7
370
    15
100
AcDbLine
 10
231.2259932761
 20
121.0843644084
 30
0.0
 11
230.9392172761
 21
131.4633644084
 31
0.0
  0
ARC
  5
118
330
1F
100
AcDbEntity
  8
0
  6
Continuous
 62
     7
370
    15
100
AcDbCircle
 10
231.7258024136
 20
121.0981734122
 30
0.0
 40
0.4999998624809763
100
AcDbArc
 50
181.5825969414
 51
270.0
  0
LINE
  5
119
330
1F
100
AcDbEntity
  8
0
  6
Continuous
 62
     7
370
    15
100
AcDbLine
 10
234.2175044136
 20
120.5981735498
 30
0.0
 11
231.7258024136
 21
120.5981735498
 31
0.0
  0
ARC
  5
11A
330
1F
100
AcDbEntity
  8
0
  6
Continuous
 62
     7
370
    15
100
AcDbCircle
 10
234.2175044136
 20
121.0981734424
 30
0.0
 40
0.4999998926650022
100
AcDbArc
 50
270.0
 51
357.8906942109
  0
LINE
  5
11B
330
1F
100
AcDbEntity
  8
0
  6
Continuous
 62
     7
370
    15
100
AcDbLine
 10
235.0997995209
 20
131.4684174385
 30
0.0
 11
234.7171655209
 21
121.0797704385
 31
0.0
  0
ARC
  5
11C
330
1F
100
AcDbEntity
  8
0
  6
Continuous
 62
     7
370
    15
100
AcDbCircle
 10
235.6494271766
 20
131.4481734512
 30
0.0
 40
0.5500003445088837
100
AcDbArc
 50
0.0
 51
177.8906247893
  0
LINE
  5
11D
330
1F
100
AcDbEntity
  8
0
  6
Continuous
 62
     7
370
    15
100
AcDbLine
 10
236.1994275211
 20
117.4981734512
 30
0.0
 11
236.1994275211
 21
131.4481734512
 31
0.0
  0
ARC
  5
11E
330
1F
100
AcDbEntity
  8
0
  6
Continuous
 62
     7
370
    15
100
AcDbCircle
 10
235.6994275211
 20
117.4981730251
 30
0.0
 40
0.5000000000000002
100
AcDbArc
 50
269.9993890865
 51
0.0000488164
  0
DIMENSION
  5
11F
330
1F
100
AcDbEntity
  8
0
  6
Continuous
 62
     7
370
     0
100
AcDbDimension
  2
*D1
 10
236.1994275562
 20
100.9981732485
 30
0.0
 11
131.3270399821
 21
100.9981730251
 31
0.0
 70
   160
 71
     1
 42
-1.0
  3
SLDDIMSTYLE0
100
AcDbAlignedDimension
 13
36.1994221899
 23
117.4981730252
 33
0.0
 14
236.1994275211
 24
117.4981734512
 34
0.0
 50
0.000000122
100
AcDbRotatedDimension
  0
DIMENSION
  5
12B
330
1F
100
AcDbEntity
  8
0
  6
Continuous
 62
     7
370
     0
100
AcDbDimension
  2
*D2
 10
247.9193632857
 20
120.5981735498
 30
0.0
 11
247.9193632857
 21
104.3031843279
 31
0.0
 70
   160
 71
     1
 42
-1.0
  3
SLDDIMSTYLE1
100
AcDbAlignedDimension
 13
235.6994221899
 23
116.9981730252
 33
0.0
 14
234.2175044136
 24
120.5981735498
 34
0.0
 50
90.0
100
AcDbRotatedDimension
  0
DIMENSION
  5
138
330
1F
100
AcDbEntity
  8
0
  6
Continuous
 62
     7
370
     0
100
AcDbDimension
  2
*D3
 10
259.1090697776
 20
131.9981737957
 30
0.0
 11
259.1090697776
 21
124.1475623936
 31
0.0
 70
   160
 71
     1
 42
-1.0
  3
SLDDIMSTYLE0
100
AcDbAlignedDimension
 13
235.6994221899
 23
116.9981730252
 33
0.0
 14
235.6494271766
 24
131.9981737957
 34
0.0
 50
90.0
100
AcDbRotatedDimension
  0
ENDSEC
  0
SECTION
  2
OBJECTS
  0
DICTIONARY
  5
C
330
0
100
AcDbDictionary
281
     1
  3
ACAD_GROUP
350
D
  3
ACAD_LAYOUT
350
1A
  3
ACAD_MLINESTYLE
350
17
  3
ACAD_PLOTSETTINGS
350
19
  3
ACAD_PLOTSTYLENAME
350
E
  0
DICTIONARY
  5
D
102
{ACAD_REACTORS
330
C
102
}
330
C
100
AcDbDictionary
281
     1
  0
DICTIONARY
  5
1A
102
{ACAD_REACTORS
330
C
102
}
330
C
100
AcDbDictionary
281
     1
  3
Layout1
350
1E
  3
Layout2
350
26
  3
Model
350
22
  0
DICTIONARY
  5
17
102
{ACAD_REACTORS
330
C
102
}
330
C
100
AcDbDictionary
281
     1
  3
Standard
350
18
  0
DICTIONARY
  5
19
102
{ACAD_REACTORS
330
C
102
}
330
C
100
AcDbDictionary
281
     1
  0
ACDBDICTIONARYWDFLT
  5
E
102
{ACAD_REACTORS
330
C
102
}
330
C
100
AcDbDictionary
281
     1
  3
Normal
350
F
100
AcDbDictionaryWithDefault
340
F
  0
LAYOUT
  5
1E
102
{ACAD_REACTORS
330
1A
102
}
330
1A
100
AcDbPlotSettings
  1

  2

  4

  6

 40
0.0
 41
0.0
 42
0.0
 43
0.0
 44
0.0
 45
0.0
 46
0.0
 47
0.0
 48
0.0
 49
0.0
140
0.0
141
0.0
142
1.0
143
1.0
 70
   688
 72
     0
 73
     0
 74
     5
  7

 75
    16
147
1.0
148
0.0
149
0.0
100
AcDbLayout
  1
Layout1
 70
     1
 71
     1
 10
0.0
 20
0.0
 11
420.0
 21
297.0
 12
0.0
 22
0.0
 32
0.0
 14
1.0000000000E+20
 24
1.0000000000E+20
 34
1.0000000000E+20
 15
-1.0000000000E+20
 25
-1.0000000000E+20
 35
-1.0000000000E+20
146
0.0
 13
0.0
 23
0.0
 33
0.0
 16
1.0
 26
0.0
 36
0.0
 17
0.0
 27
1.0
 37
0.0
 76
     0
330
1B
  0
LAYOUT
  5
26
102
{ACAD_REACTORS
330
1A
102
}
330
1A
100
AcDbPlotSettings
  1

  2

  4

  6

 40
0.0
 41
0.0
 42
0.0
 43
0.0
 44
0.0
 45
0.0
 46
0.0
 47
0.0
 48
0.0
 49
0.0
140
0.0
141
0.0
142
1.0
143
1.0
 70
   688
 72
     0
 73
     0
 74
     5
  7

 75
    16
147
1.0
148
0.0
149
0.0
100
AcDbLayout
  1
Layout2
 70
     1
 71
     2
 10
0.0
 20
0.0
 11
0.0
 21
0.0
 12
0.0
 22
0.0
 32
0.0
 14
0.0
 24
0.0
 34
0.0
 15
0.0
 25
0.0
 35
0.0
146
0.0
 13
0.0
 23
0.0
 33
0.0
 16
1.0
 26
0.0
 36
0.0
 17
0.0
 27
1.0
 37
0.0
 76
     0
330
23
  0
LAYOUT
  5
22
102
{ACAD_REACTORS
330
1A
102
}
330
1A
100
AcDbPlotSettings
  1

  2

  4

  6

 40
0.0
 41
0.0
 42
0.0
 43
0.0
 44
0.0
 45
0.0
 46
0.0
 47
0.0
 48
0.0
 49
0.0
140
0.0
141
0.0
142
1.0
143
1.0
 70
  1712
 72
     0
 73
     0
 74
     0
  7

 75
     0
147
1.0
148
0.0
149
0.0
100
AcDbLayout
  1
Model
 70
     1
 71
     0
 10
0.0
 20
0.0
 11
0.0
 21
0.0
 12
0.0
 22
0.0
 32
0.0
 14
0.0
 24
0.0
 34
0.0
 15
279.4
 25
215.9
 35
0.0
146
0.0
 13
0.0
 23
0.0
 33
0.0
 16
1.0
 26
0.0
 36
0.0
 17
0.0
 27
1.0
 37
0.0
 76
     0
330
1F
  0
MLINESTYLE
  5
18
102
{ACAD_REACTORS
330
17
102
}
330
17
100
AcDbMlineStyle
  2
Standard
 70
     0
  3

 62
   256
 51
90.0
 52
90.0
 71
     2
 49
0.5
 62
   256
  6
BYLAYER
 49
-0.5
 62
   256
  6
BYLAYER
  0
ACDBPLACEHOLDER
  5
F
102
{ACAD_REACTORS
330
E
102
}
330
E
  0
ENDSEC
  0
EOF
