  0
SECTION
  2
HEADER
  9
$ACADVER
  1
AC1009
  9
$DWGCODEPAGE
  3
ansi_1252
  9
$INSBASE
 10
0.0
 20
0.0
 30
0.0
  9
$EXTMIN
 10
0.0
 20
0.0
 30
0.0
  9
$EXTMAX
 10
210.0
 20
297.0
 30
0.0
  9
$LIMMIN
 10
0.0
 20
0.0
  9
$LIMMAX
 10
210.0
 20
297.0
  9
$ORTHOMODE
 70
     0
  9
$REGENMODE
 70
     1
  9
$FILLMODE
 70
     1
  9
$QTEXTMODE
 70
     0
  9
$MIRRTEXT
 70
     1
  9
$DRAGMODE
 70
     2
  9
$LTSCALE
 40
1.0
  9
$OSMODE
 70
    37
  9
$ATTMODE
 70
     1
  9
$TEXTSIZE
 40
3.5
  9
$TRACEWID
 40
1.0
  9
$TEXTSTYLE
  7
STANDARD
  9
$CLAYER
  8
0
  9
$CELTYPE
  6
BYLAYER
  9
$CECOLOR
 62
   256
  9
$DIMSCALE
 40
1.0
  9
$DIMASZ
 40
3.302
  9
$DIMEXO
 40
1.0
  9
$DIMDLI
 40
3.75
  9
$DIMRND
 40
0.0
  9
$DIMDLE
 40
0.0
  9
$DIMEXE
 40
1.0
  9
$DIMTP
 40
0.0
  9
$DIMTM
 40
0.0
  9
$DIMTXT
 40
3.5
  9
$DIMCEN
 40
2.5
  9
$DIMTSZ
 40
0.0
  9
$DIMTOL
 70
     0
  9
$DIMLIM
 70
     0
  9
$DIMTIH
 70
     1
  9
$DIMTOH
 70
     1
  9
$DIMSE1
 70
     0
  9
$DIMSE2
 70
     0
  9
$DIMTAD
 70
     1
  9
$DIMZIN
 70
     0
  9
$DIMBLK
  1

  9
$DIMASO
 70
     1
  9
$DIMSHO
 70
     1
  9
$DIMPOST
  1

  9
$DIMAPOST
  1

  9
$DIMALT
 70
     0
  9
$DIMALTD
 70
     3
  9
$DIMALTF
 40
0.0393700787
  9
$DIMLFAC
 40
1.0
  9
$DIMTOFL
 70
     1
  9
$DIMTVP
 40
0.0
  9
$DIMTIX
 70
     0
  9
$DIMSOXD
 70
     0
  9
$DIMSAH
 70
     0
  9
$DIMBLK1
  1

  9
$DIMBLK2
  1

  9
$DIMSTYLE
  2
ISO-25
  9
$DIMCLRD
 70
     0
  9
$DIMCLRE
 70
     0
  9
$DIMCLRT
 70
     0
  9
$DIMTFAC
 40
1.0
  9
$DIMGAP
 40
1.524
  9
$LUNITS
 70
     2
  9
$LUPREC
 70
     2
  9
$SKETCHINC
 40
1.0
  9
$FILLETRAD
 40
10.0
  9
$AUNITS
 70
     0
  9
$AUPREC
 70
     2
  9
$MENU
  1
.
  9
$ELEVATION
 40
0.0
  9
$PELEVATION
 40
0.0
  9
$THICKNESS
 40
0.0
  9
$LIMCHECK
 70
     0
  9
$CHAMFERA
 40
0.0
  9
$CHAMFERB
 40
0.0
  9
$SKPOLY
 70
     0
  9
$TDCREATE
 40
2458562.527428021
  9
$TDUPDATE
 40
2458562.527445891
  9
$TDINDWG
 40
0.0000000116
  9
$TDUSRTIMER
 40
0.0000000116
  9
$USRTIMER
 70
     1
  9
$ANGBASE
 50
0.0
  9
$ANGDIR
 70
     0
  9
$PDMODE
 70
     0
  9
$PDSIZE
 40
-1.0
  9
$PLINEWID
 40
0.0
  9
$COORDS
 70
     1
  9
$SPLFRAME
 70
     0
  9
$SPLINETYPE
 70
     6
  9
$SPLINESEGS
 70
     8
  9
$ATTDIA
 70
     0
  9
$ATTREQ
 70
     1
  9
$HANDLING
 70
     1
  9
$HANDSEED
  5
2A1
  9
$SURFTAB1
 70
     6
  9
$SURFTAB2
 70
     6
  9
$SURFTYPE
 70
     6
  9
$SURFU
 70
     6
  9
$SURFV
 70
     6
  9
$UCSNAME
  2

  9
$UCSORG
 10
0.0
 20
0.0
 30
0.0
  9
$UCSXDIR
 10
1.0
 20
0.0
 30
0.0
  9
$UCSYDIR
 10
0.0
 20
1.0
 30
0.0
  9
$PUCSNAME
  2

  9
$PUCSORG
 10
0.0
 20
0.0
 30
0.0
  9
$PUCSXDIR
 10
1.0
 20
0.0
 30
0.0
  9
$PUCSYDIR
 10
0.0
 20
1.0
 30
0.0
  9
$USERI1
 70
     0
  9
$USERI2
 70
     0
  9
$USERI3
 70
     0
  9
$USERI4
 70
     0
  9
$USERI5
 70
     0
  9
$USERR1
 40
0.0
  9
$USERR2
 40
0.0
  9
$USERR3
 40
0.0
  9
$USERR4
 40
0.0
  9
$USERR5
 40
0.0
  9
$WORLDVIEW
 70
     1
  9
$SHADEDGE
 70
     3
  9
$SHADEDIF
 70
    70
  9
$TILEMODE
 70
     1
  9
$MAXACTVP
 70
    64
  9
$PLIMCHECK
 70
     0
  9
$PEXTMIN
 10
1.0000000000E+20
 20
1.0000000000E+20
 30
1.0000000000E+20
  9
$PEXTMAX
 10
-1.0000000000E+20
 20
-1.0000000000E+20
 30
-1.0000000000E+20
  9
$PLIMMIN
 10
0.0
 20
0.0
  9
$PLIMMAX
 10
420.0
 20
297.0
  9
$UNITMODE
 70
     0
  9
$VISRETAIN
 70
     1
  9
$PLINEGEN
 70
     0
  9
$PSLTSCALE
 70
     1
  0
ENDSEC
  0
SECTION
  2
TABLES
  0
TABLE
  2
VPORT
 70
     1
  0
VPORT
  2
*ACTIVE
 70
     0
 10
0.0
 20
0.0
 11
1.0
 21
1.0
 12
105.0
 22
148.5
 13
0.0
 23
0.0
 14
10.0
 24
10.0
 15
10.0
 25
10.0
 16
0.0
 26
0.0
 36
1.0
 17
0.0
 27
0.0
 37
0.0
 40
297.0
 41
0.7070707071
 42
50.0
 43
0.0
 44
0.0
 50
0.0
 51
0.0
 71
     0
 72
  2000
 73
     1
 74
     3
 75
     0
 76
     0
 77
     0
 78
     0
  0
ENDTAB
  0
TABLE
  2
LTYPE
 70
     6
  0
LTYPE
  2
CONTINUOUS
 70
     0
  3
Solid line
 72
    65
 73
     0
 40
0.0
  0
LTYPE
  2
HIDDEN
 70
     0
  3
Hidden __ __ __ __ __ __ __ __ __ __ __ __ __ __
 72
    65
 73
     2
 40
1.905
 49
1.27
 49
-0.635
  0
LTYPE
  2
PHANTOM
 70
     0
  3
Phantom ______  __  __  ______  __  __  ______
 72
    65
 73
     6
 40
12.7
 49
6.35
 49
-1.27
 49
1.27
 49
-1.27
 49
1.27
 49
-1.27
  0
LTYPE
  2
CENTER
 70
     0
  3
Center ____ _ ____ _ ____ _ ____ _ ____ _ ____
 72
    65
 73
     4
 40
10.16
 49
6.35
 49
-1.27
 49
1.27
 49
-1.27
  0
LTYPE
  2
CENTERX2
 70
     0
  3
Center (2x) ________  __  ________  __  _____
 72
    65
 73
     4
 40
20.32
 49
12.7
 49
-2.54
 49
2.54
 49
-2.54
  0
LTYPE
  2
DOT2
 70
     0
  3
Dot (.5x) ........................................
 72
    65
 73
     2
 40
0.635
 49
0.0
 49
-0.635
  0
ENDTAB
  0
TABLE
  2
LAYER
 70
     1
  0
LAYER
  2
0
 70
     0
 62
     7
  6
CONTINUOUS
  0
ENDTAB
  0
TABLE
  2
STYLE
 70
     1
  0
STYLE
  2
STANDARD
 70
     0
 40
0.0
 41
1.0
 50
0.0
 71
     0
 42
3.5
  3
txt
  4

  0
ENDTAB
  0
TABLE
  2
VIEW
 70
     0
  0
ENDTAB
  0
TABLE
  2
UCS
 70
     0
  0
ENDTAB
  0
TABLE
  2
APPID
 70
     1
  0
APPID
  2
ACAD
 70
     0
  0
ENDTAB
  0
TABLE
  2
DIMSTYLE
 70
     6
  0
DIMSTYLE
  2
ISO-25
 70
     0
  3

  4

  5

  6

  7

 40
1.0
 41
2.5
 42
0.625
 43
3.75
 44
1.25
 45
0.0
 46
0.0
 47
0.0
 48
0.0
140
2.5
141
2.5
142
0.0
143
0.0393700787
144
1.0
145
0.0
146
1.0
147
0.625
 71
     0
 72
     0
 73
     0
 74
     0
 75
     0
 76
     0
 77
     1
 78
     8
170
     0
171
     3
172
     1
173
     0
174
     0
175
     0
176
     0
177
     0
178
     0
  0
DIMSTYLE
  2
SLDDIMSTYLE0
 70
     0
  3

  4

  5

  6

  7

 40
1.0
 41
3.302
 42
0.0625
 43
0.38
 44
0.0
 45
0.000000001
 46
0.0
 47
0.0
 48
0.0
140
3.5
141
0.09
142
0.0
143
25.4
144
1.0
145
0.0
146
1.0
147
0.875
 71
     0
 72
     0
 73
     0
 74
     0
 75
     0
 76
     0
 77
     1
 78
    12
170
     0
171
     2
172
     0
173
     1
174
     0
175
     0
176
     0
177
     0
178
     0
  0
DIMSTYLE
  2
SLDDIMSTYLE1
 70
     0
  3

  4

  5

  6

  7

 40
1.0
 41
3.302
 42
0.0625
 43
0.38
 44
0.0
 45
0.000000001
 46
0.0
 47
0.0
 48
0.0
140
3.5
141
0.09
142
0.0
143
25.4
144
1.0
145
0.0
146
1.0
147
0.875
 71
     0
 72
     0
 73
     0
 74
     0
 75
     0
 76
     0
 77
     1
 78
    12
170
     0
171
     2
172
     1
173
     1
174
     0
175
     0
176
     0
177
     0
178
     0
  0
DIMSTYLE
  2
SLDDIMSTYLE2
 70
     0
  3

  4

  5

  6

  7

 40
1.0
 41
3.302
 42
0.0625
 43
0.38
 44
0.0
 45
0.000000001
 46
0.0
 47
0.0
 48
0.0
140
3.5
141
0.09
142
0.0
143
25.4
144
1.0
145
0.0
146
1.0
147
0.875
 71
     0
 72
     0
 73
     0
 74
     0
 75
     0
 76
     0
 77
     1
 78
     8
170
     0
171
     2
172
     1
173
     1
174
     0
175
     0
176
     0
177
     0
178
     0
  0
DIMSTYLE
  2
SLDDIMSTYLE3
 70
     0
  3

  4

  5

  6

  7

 40
1.0
 41
3.302
 42
0.0625
 43
0.38
 44
0.0
 45
0.0
 46
0.0
 47
0.0
 48
0.0
140
3.5
141
0.09
142
0.0
143
25.4
144
1.0
145
0.0
146
1.0
147
0.875
 71
     0
 72
     0
 73
     0
 74
     0
 75
     0
 76
     0
 77
     1
 78
    12
170
     0
171
     2
172
     0
173
     1
174
     0
175
     0
176
     0
177
     0
178
     0
  0
DIMSTYLE
  2
SLDDIMSTYLE4
 70
     0
  3

  4

  5

  6

  7

 40
1.0
 41
3.302
 42
0.0625
 43
0.38
 44
0.0
 45
0.0
 46
0.0
 47
0.0
 48
0.0
140
3.5
141
0.09
142
0.0
143
25.4
144
1.0
145
0.0
146
1.0
147
0.875
 71
     0
 72
     0
 73
     0
 74
     0
 75
     0
 76
     0
 77
     1
 78
    12
170
     0
171
     2
172
     0
173
     1
174
     0
175
     0
176
     0
177
     0
178
     0
  0
ENDTAB
  0
ENDSEC
  0
SECTION
  2
BLOCKS
  0
BLOCK
  8
0
  2
$MODEL_SPACE
 70
     0
 10
0.0
 20
0.0
 30
0.0
  3
$MODEL_SPACE
  1

  0
ENDBLK
  5
21
  8
0
  0
BLOCK
 67
     1
  8
0
  2
$PAPER_SPACE
 70
     0
 10
0.0
 20
0.0
 30
0.0
  3
$PAPER_SPACE
  1

  0
ENDBLK
  5
1D
 67
     1
  8
0
  0
BLOCK
  8
0
  2
BLOCK2
 70
     0
 10
0.0
 20
0.0
 30
0.0
  3
BLOCK2
  1

  0
INSERT
  5
84
  8
0
  6
CONTINUOUS
 62
     7
  2
BLOCK1
 10
-129.4131316458
 20
-143.3276418948
 30
0.0
  0
ENDBLK
  5
75
  8
0
  0
BLOCK
  8
0
  2
BLOCK1
 70
     0
 10
0.0
 20
0.0
 30
0.0
  3
BLOCK1
  1

  0
CIRCLE
  5
79
  8
0
  6
CONTINUOUS
 62
     7
 10
144.0765920165
 20
150.6017119002
 30
0.0
 40
2.999999999999993
  0
CIRCLE
  5
7A
  8
0
  6
CONTINUOUS
 62
     7
 10
144.0765920165
 20
150.6017119002
 30
0.0
 40
1.499999999999987
  0
LINE
  5
7B
  8
0
  6
CENTERX2
 62
     7
 10
125.6915591078
 20
150.6017119002
 30
0.0
 11
150.4616249253
 21
150.6017119002
 31
0.0
  0
LINE
  5
7C
  8
0
  6
CONTINUOUS
 62
     7
 10
138.0765920165
 20
153.6885737154
 30
0.0
 11
138.0765920165
 21
147.514850085
 31
0.0
  0
LINE
  5
7D
  8
0
  6
CONTINUOUS
 62
     7
 10
131.2570464222
 20
152.1885737154
 30
0.0
 11
131.2570464222
 21
149.014850085
 31
0.0
  0
LINE
  5
7E
  8
0
  6
CONTINUOUS
 62
     7
 10
131.2570464222
 20
152.1885737154
 30
0.0
 11
138.0765920165
 21
153.6885737154
 31
0.0
  0
LINE
  5
7F
  8
0
  6
CONTINUOUS
 62
     7
 10
131.2570464222
 20
149.014850085
 30
0.0
 11
138.0765920165
 21
147.514850085
 31
0.0
  0
LINE
  5
80
  8
0
  6
CENTERX2
 62
     7
 10
144.0765920165
 20
145.3276418948
 30
0.0
 11
144.0765920165
 21
155.7091648362
 31
0.0
  0
ENDBLK
  5
78
  8
0
  0
BLOCK
  8
0
  2
PROJEKTIONSMETHODE_1
 70
     0
 10
0.0
 20
0.0
 30
0.0
  3
PROJEKTIONSMETHODE_1
  1

  0
INSERT
  5
85
  8
0
  6
CONTINUOUS
 62
     7
  2
BLOCK2
 10
3.721572538
 20
-2.0
 30
0.0
  0
ENDBLK
  5
83
  8
0
  0
BLOCK
  8
0
  2
SW_NOTE_0
 70
     0
 10
0.0
 20
0.0
 30
0.0
  3
SW_NOTE_0
  1

  0
TEXT
  5
C7
  8
0
  6
CONTINUOUS
 62
     0
 10
0.0
 20
0.7477337977
 30
0.0
 40
2.1166666667
  1
IF NOT OTHERWISE DEFINED:
 41
0.658
 11
0.0
 21
0.0
 31
0.0
 73
     1
  0
TEXT
  5
C8
  8
0
  6
CONTINUOUS
 62
     0
 10
0.0
 20
-2.0744883904
 30
0.0
 40
2.1166666667
  1
DIMENSIONS ARE IN MILLIMETERS
 41
0.6637931034
 11
0.0
 21
-2.8222221881
 31
0.0
 73
     1
  0
TEXT
  5
C9
  8
0
  6
CONTINUOUS
 62
     0
 10
0.0
 20
-4.8967105785
 30
0.0
 40
2.1166666667
  1
SURFACE CONDITIONS:
 41
0.7
 11
0.0
 21
-5.6444443762
 31
0.0
 73
     1
  0
TEXT
  5
CA
  8
0
  6
CONTINUOUS
 62
     0
 10
0.0
 20
-10.5411549547
 30
0.0
 40
2.1166666667
  1
TOLERANCES: 
 41
0.7
 11
0.0
 21
-11.2888887525
 31
0.0
 73
     1
  0
TEXT
  5
CB
  8
0
  6
CONTINUOUS
 62
     0
 10
20.2979519963
 20
-10.5411549547
 30
0.0
 40
2.1166666667
  1
DIN ISO 2768-m
 41
0.65
 11
20.2979519963
 21
-11.2888887525
 31
0.0
 73
     1
  0
ENDBLK
  5
C6
  8
0
  0
BLOCK
  8
0
  2
SW_NOTE_0_1
 70
     0
 10
0.0
 20
0.0
 30
0.0
  3
SW_NOTE_0_1
  1

  0
TEXT
  5
D3
  8
0
  6
CONTINUOUS
 62
     0
 10
0.0
 20
0.8831501548
 30
0.0
 40
2.5
  1
MATERIAL: 
 41
0.7
 11
0.0
 21
0.0
 31
0.0
 73
     1
  0
TEXT
  5
D4
  8
0
  6
CONTINUOUS
 62
     0
 10
18.7070313841
 20
0.926600667
 30
0.0
 40
3.175
  1
EN AW-6060 (AlMgSi0,5)
 41
0.6681818182
 11
18.7070313841
 21
-0.1950000296
 31
0.0
 73
     1
  0
ENDBLK
  5
D2
  8
0
  0
BLOCK
  8
0
  2
_D
 70
     0
 10
0.0
 20
0.0
 30
0.0
  3
_D
  1

  0
SOLID
  5
154
  8
0
  6
CONTINUOUS
 62
   154
 10
25.8563908528
 20
219.7709121246
 30
0.0
 11
29.1583908528
 21
219.2629121246
 31
0.0
 12
29.1583908528
 22
220.2789121246
 32
0.0
 13
29.1583908528
 23
220.2789121246
 33
0.0
  0
SOLID
  5
155
  8
0
  6
CONTINUOUS
 62
   154
 10
151.4570907934
 20
219.7709121246
 30
0.0
 11
148.1550907934
 21
220.2789121246
 31
0.0
 12
148.1550907934
 22
219.2629121246
 32
0.0
 13
148.1550907934
 23
219.2629121246
 33
0.0
  0
LINE
  5
156
  8
0
  6
CONTINUOUS
 62
   154
 10
25.8563908528
 20
228.7709121246
 30
0.0
 11
25.8563908528
 21
218.7709121246
 31
0.0
  0
LINE
  5
157
  8
0
  6
CONTINUOUS
 62
   154
 10
151.4570907934
 20
228.7709121246
 30
0.0
 11
151.4570907934
 21
218.7709121246
 31
0.0
  0
LINE
  5
158
  8
0
  6
CONTINUOUS
 62
   154
 10
25.8563908528
 20
219.7709121246
 30
0.0
 11
151.4570907934
 21
219.7709121246
 31
0.0
  0
TEXT
  5
159
  8
0
  6
CONTINUOUS
 62
   154
 10
86.8421019929
 20
221.0073221667
 30
-30.0
 40
3.5
  1
125
 41
0.7
 11
86.8421019929
 21
219.77091195
 31
-30.0
 73
     1
  0
ENDBLK
  5
153
  8
0
  0
BLOCK
  8
0
  2
_D_1
 70
     0
 10
0.0
 20
0.0
 30
0.0
  3
_D_1
  1

  0
SOLID
  5
15F
  8
0
  6
CONTINUOUS
 62
   154
 10
23.1424812718
 20
229.7709121246
 30
0.0
 11
22.6344812718
 21
226.4689121246
 31
0.0
 12
23.6504812718
 22
226.4689121246
 32
0.0
 13
23.6504812718
 23
226.4689121246
 33
0.0
  0
SOLID
  5
160
  8
0
  6
CONTINUOUS
 62
   154
 10
23.1424812718
 20
240.7709121246
 30
0.0
 11
23.6504812718
 21
244.0729121246
 31
0.0
 12
22.6344812718
 22
244.0729121246
 32
0.0
 13
22.6344812718
 23
244.0729121246
 33
0.0
  0
LINE
  5
161
  8
0
  6
CONTINUOUS
 62
   154
 10
24.8563908528
 20
229.7709121246
 30
0.0
 11
22.1424812718
 21
229.7709121246
 31
0.0
  0
LINE
  5
162
  8
0
  6
CONTINUOUS
 62
   154
 10
24.8563908528
 20
240.7709121246
 30
0.0
 11
22.1424812718
 21
240.7709121246
 31
0.0
  0
LINE
  5
163
  8
0
  6
CONTINUOUS
 62
   154
 10
23.1424812718
 20
229.7709121246
 30
0.0
 11
23.1424812718
 21
223.4209121246
 31
0.0
  0
LINE
  5
164
  8
0
  6
CONTINUOUS
 62
   154
 10
23.1424812718
 20
229.7709121246
 30
0.0
 11
23.1424812718
 21
240.7709121246
 31
0.0
  0
LINE
  5
165
  8
0
  6
CONTINUOUS
 62
   154
 10
23.1424812718
 20
240.7709121246
 30
0.0
 11
23.1424812718
 21
247.1209121246
 31
0.0
  0
TEXT
  5
166
  8
0
  6
CONTINUOUS
 62
   154
 10
21.9060712297
 20
232.7949748031
 30
-30.0
 40
3.5
  1
11
 50
90.0
 41
0.7
 11
23.1424814464
 21
232.7949748031
 31
-30.0
 73
     1
  0
ENDBLK
  5
15E
  8
0
  0
BLOCK
  8
0
  2
_D_2
 70
     0
 10
0.0
 20
0.0
 30
0.0
  3
_D_2
  1

  0
SOLID
  5
16C
  8
0
  6
CONTINUOUS
 62
   154
 10
25.8563908528
 20
249.5432636853
 30
0.0
 11
22.5543908528
 21
250.0512636853
 31
0.0
 12
22.5543908528
 22
249.0352636853
 32
0.0
 13
22.5543908528
 23
249.0352636853
 33
0.0
  0
SOLID
  5
16D
  8
0
  6
CONTINUOUS
 62
   154
 10
26.6663908528
 20
249.5432636853
 30
0.0
 11
29.9683908528
 21
249.0352636853
 31
0.0
 12
29.9683908528
 22
250.0512636853
 32
0.0
 13
29.9683908528
 23
250.0512636853
 33
0.0
  0
LINE
  5
16E
  8
0
  6
CONTINUOUS
 62
   154
 10
25.8563908528
 20
241.7709121246
 30
0.0
 11
25.8563908528
 21
250.5432636853
 31
0.0
  0
LINE
  5
16F
  8
0
  6
CONTINUOUS
 62
   154
 10
26.6663908528
 20
241.7709121246
 30
0.0
 11
26.6663908528
 21
250.5432636853
 31
0.0
  0
LINE
  5
170
  8
0
  6
CONTINUOUS
 62
   154
 10
25.8563908528
 20
249.5432636853
 30
0.0
 11
19.5063908528
 21
249.5432636853
 31
0.0
  0
LINE
  5
171
  8
0
  6
CONTINUOUS
 62
   154
 10
25.8563908528
 20
249.5432636853
 30
0.0
 11
26.6663908528
 21
249.5432636853
 31
0.0
  0
LINE
  5
172
  8
0
  6
CONTINUOUS
 62
   154
 10
26.6663908528
 20
249.5432636853
 30
0.0
 11
38.9750787272
 21
249.5432636853
 31
0.0
  0
TEXT
  5
173
  8
0
  6
CONTINUOUS
 62
   154
 10
29.9236896663
 20
250.7796737274
 30
-30.0
 40
3.5
  1
0,81
 41
0.7
 11
29.9236896663
 21
249.5432635107
 31
-30.0
 73
     1
  0
ENDBLK
  5
16B
  8
0
  0
BLOCK
  8
0
  2
_D_3
 70
     0
 10
0.0
 20
0.0
 30
0.0
  3
_D_3
  1

  0
SOLID
  5
178
  8
0
  6
CONTINUOUS
 62
   154
 10
50.1561009346
 20
249.6775948917
 30
0.0
 11
46.8541009346
 21
250.1855948917
 31
0.0
 12
46.8541009346
 22
249.1695948917
 32
0.0
 13
46.8541009346
 23
249.1695948917
 33
0.0
  0
SOLID
  5
179
  8
0
  6
CONTINUOUS
 62
   154
 10
51.7661009346
 20
249.6775948917
 30
0.0
 11
55.0681009346
 21
249.1695948917
 31
0.0
 12
55.0681009346
 22
250.1855948917
 32
0.0
 13
55.0681009346
 23
250.1855948917
 33
0.0
  0
LINE
  5
17A
  8
0
  6
CONTINUOUS
 62
   154
 10
50.1561009346
 20
241.769763265
 30
0.0
 11
50.1561009346
 21
250.6775948917
 31
0.0
  0
LINE
  5
17B
  8
0
  6
CONTINUOUS
 62
   154
 10
51.7661009346
 20
241.769763265
 30
0.0
 11
51.7661009346
 21
250.6775948917
 31
0.0
  0
LINE
  5
17C
  8
0
  6
CONTINUOUS
 62
   154
 10
50.1561009346
 20
249.6775948917
 30
0.0
 11
43.8061009346
 21
249.6775948917
 31
0.0
  0
LINE
  5
17D
  8
0
  6
CONTINUOUS
 62
   154
 10
50.1561009346
 20
249.6775948917
 30
0.0
 11
51.7661009346
 21
249.6775948917
 31
0.0
  0
LINE
  5
17E
  8
0
  6
CONTINUOUS
 62
   154
 10
51.7661009346
 20
249.6775948917
 30
0.0
 11
63.9552923392
 21
249.6775948917
 31
0.0
  0
TEXT
  5
17F
  8
0
  6
CONTINUOUS
 62
   154
 10
54.9039032783
 20
250.9140049338
 30
-30.0
 40
3.5
  1
1,61
 50
0.0
 41
0.7
 11
54.9039032783
 21
249.6775947171
 31
-30.0
 73
     1
  0
ENDBLK
  5
177
  8
0
  0
BLOCK
  8
0
  2
_D_4
 70
     0
 10
0.0
 20
0.0
 30
0.0
  3
_D_4
  1

  0
SOLID
  5
184
  8
0
  6
CONTINUOUS
 62
   154
 10
36.8958999367
 20
223.0446888514
 30
0.0
 11
33.5938999367
 21
223.5526888514
 31
0.0
 12
33.5938999367
 22
222.5366888514
 32
0.0
 13
33.5938999367
 23
222.5366888514
 33
0.0
  0
SOLID
  5
185
  8
0
  6
CONTINUOUS
 62
   154
 10
39.8958999367
 20
223.0446888514
 30
0.0
 11
43.1978999367
 21
222.5366888514
 31
0.0
 12
43.1978999367
 22
223.5526888514
 32
0.0
 13
43.1978999367
 23
223.5526888514
 33
0.0
  0
LINE
  5
186
  8
0
  6
CONTINUOUS
 62
   154
 10
36.8958999367
 20
236.5314118536
 30
0.0
 11
36.8958999367
 21
222.0446888514
 31
0.0
  0
LINE
  5
187
  8
0
  6
CONTINUOUS
 62
   154
 10
39.8958999367
 20
236.5314118536
 30
0.0
 11
39.8958999367
 21
222.0446888514
 31
0.0
  0
LINE
  5
188
  8
0
  6
CONTINUOUS
 62
   154
 10
36.8958999367
 20
223.0446888514
 30
0.0
 11
30.5458999367
 21
223.0446888514
 31
0.0
  0
LINE
  5
189
  8
0
  6
CONTINUOUS
 62
   154
 10
36.8958999367
 20
223.0446888514
 30
0.0
 11
39.8958999367
 21
223.0446888514
 31
0.0
  0
LINE
  5
18A
  8
0
  6
CONTINUOUS
 62
   154
 10
39.8958999367
 20
223.0446888514
 30
0.0
 11
46.2458999367
 21
223.0446888514
 31
0.0
  0
TEXT
  5
18B
  8
0
  6
CONTINUOUS
 62
   154
 10
37.0265890372
 20
224.2810988935
 30
-30.0
 40
3.5
  1
3
 41
0.7
 11
37.0265890372
 21
223.0446886768
 31
-30.0
 73
     1
  0
ENDBLK
  5
183
  8
0
  0
BLOCK
  8
0
  2
_D_5
 70
     0
 10
0.0
 20
0.0
 30
0.0
  3
_D_5
  1

  0
ARC
  5
191
  8
0
  6
CONTINUOUS
 62
   154
 10
78.6045726459
 20
214.1751609046
 30
0.0
 40
35.5024421629593
 50
86.325
 51
93.675
  0
ARC
  5
192
  8
0
  6
CONTINUOUS
 62
   154
 10
78.6045726459
 20
214.1751609046
 30
0.0
 40
35.5024421629593
 50
76.1120147852
 51
86.325
  0
ARC
  5
193
  8
0
  6
CONTINUOUS
 62
   154
 10
78.6045726459
 20
214.1751609046
 30
0.0
 40
35.5024421629593
 50
93.675
 51
103.8879852148
  0
SOLID
  5
194
  8
0
  6
CONTINUOUS
 62
   154
 10
80.8801683958
 20
249.6045987144
 30
0.0
 11
84.106000129
 21
248.7355316116
 31
0.0
 12
84.2180512011
 22
249.7453338482
 32
0.0
 13
84.2180512011
 23
249.7453338482
 33
0.0
  0
SOLID
  5
195
  8
0
  6
CONTINUOUS
 62
   154
 10
76.3289768959
 20
249.6045987144
 30
0.0
 11
72.9910940906
 21
249.7453338482
 31
0.0
 12
73.1031451627
 22
248.7355316116
 32
0.0
 13
73.1031451627
 23
248.7355316116
 33
0.0
  0
LINE
  5
196
  8
0
  6
CONTINUOUS
 62
   154
 10
80.3767023457
 20
241.7659836565
 30
0.0
 11
80.9442652751
 21
250.6025423952
 31
0.0
  0
LINE
  5
197
  8
0
  6
CONTINUOUS
 62
   154
 10
76.8324244985
 20
241.7662708714
 30
0.0
 11
76.2648800166
 21
250.6025423952
 31
0.0
  0
TEXT
  5
198
  8
0
  6
CONTINUOUS
 62
   154
 10
73.1704792899
 20
250.9177094771
 30
-30.0
 40
3.5
  1
7,35°
 50
-0.0388844002
 41
0.7
 11
73.1696401868
 21
249.6812995451
 31
-30.0
 73
     1
  0
ENDBLK
  5
190
  8
0
  0
BLOCK
  8
0
  2
_D_6
 70
     0
 10
0.0
 20
0.0
 30
0.0
  3
_D_6
  1

  0
ARC
  5
19E
  8
0
  6
CONTINUOUS
 62
   154
 10
105.2349746416
 20
237.5291141345
 30
0.0
 40
12.20116607588457
 50
86.325
 51
180.0
  0
ARC
  5
19F
  8
0
  6
CONTINUOUS
 62
   154
 10
105.2349746416
 20
237.5291141345
 30
0.0
 40
12.20116607588457
 50
57.3434674178
 51
86.325
  0
ARC
  5
1A0
  8
0
  6
CONTINUOUS
 62
   154
 10
105.2349746416
 20
237.5291141345
 30
0.0
 40
12.20116607588455
 50
180.0
 51
208.9815325822
  0
SOLID
  5
1A1
  8
0
  6
CONTINUOUS
 62
   154
 10
106.0170313108
 20
249.7051907185
 30
0.0
 11
109.1565461447
 21
248.5629496722
 31
0.0
 12
109.3546988368
 22
249.5594392661
 32
0.0
 13
109.3546988368
 23
249.5594392661
 33
0.0
  0
SOLID
  5
1A2
  8
0
  6
CONTINUOUS
 62
   154
 10
93.0338085657
 20
237.5291141345
 30
0.0
 11
92.965326234
 21
234.1889677051
 31
0.0
 12
93.9724676964
 22
234.3228410588
 32
0.0
 13
93.9724676964
 23
234.3228410588
 33
0.0
  0
LINE
  5
1A3
  8
0
  6
CONTINUOUS
 62
   154
 10
105.5071412364
 20
241.7665580863
 30
0.0
 11
106.0811281901
 21
250.7031343993
 31
0.0
  0
LINE
  5
1A4
  8
0
  6
CONTINUOUS
 62
   154
 10
96.2089090004
 20
237.5291141345
 30
0.0
 11
92.0338085657
 21
237.5291141345
 31
0.0
  0
TEXT
  5
1A5
  8
0
  6
CONTINUOUS
 62
   154
 10
91.4390260826
 20
244.9429207439
 30
-30.0
 40
3.5
  1
93,675°
 50
30.837700073
 41
0.7
 11
92.0728197785
 21
243.8813107519
 31
-30.0
 73
     1
  0
ENDBLK
  5
19D
  8
0
  0
BLOCK
  8
0
  2
_D_7
 70
     0
 10
0.0
 20
0.0
 30
0.0
  3
_D_7
  1

  0
SOLID
  5
1AF
  8
0
  6
CONTINUOUS
 62
   154
 10
203.923133238
 20
220.3556570876
 30
0.0
 11
200.621133238
 21
220.8636570876
 31
0.0
 12
200.621133238
 22
219.8476570876
 32
0.0
 13
200.621133238
 23
219.8476570876
 33
0.0
  0
SOLID
  5
1B0
  8
0
  6
CONTINUOUS
 62
   154
 10
163.923133238
 20
220.3556570876
 30
0.0
 11
167.225133238
 21
219.8476570876
 31
0.0
 12
167.225133238
 22
220.8636570876
 32
0.0
 13
167.225133238
 23
220.8636570876
 33
0.0
  0
LINE
  5
1B1
  8
0
  6
CONTINUOUS
 62
   154
 10
203.923133238
 20
228.7709121246
 30
0.0
 11
203.923133238
 21
219.3556570876
 31
0.0
  0
LINE
  5
1B2
  8
0
  6
CONTINUOUS
 62
   154
 10
163.923133238
 20
228.7709121246
 30
0.0
 11
163.923133238
 21
219.3556570876
 31
0.0
  0
LINE
  5
1B3
  8
0
  6
CONTINUOUS
 62
   154
 10
203.923133238
 20
220.3556570876
 30
0.0
 11
163.923133238
 21
220.3556570876
 31
0.0
  0
TEXT
  5
1B4
  8
0
  6
CONTINUOUS
 62
   154
 10
182.7589293737
 20
221.5920671297
 30
0.3003499703
 40
3.5
  1
L
 50
0.0
 41
0.7
 11
182.7589293737
 21
220.3556569129
 31
0.3003499703
 73
     1
  0
ENDBLK
  5
1AE
  8
0
  0
ENDSEC
  0
SECTION
  2
ENTITIES
  0
LINE
  5
87
  8
0
  6
CONTINUOUS
 62
     7
 10
17.8
 20
60.25
 30
0.0
 11
17.8
 21
5.0
 31
0.0
  0
LINE
  5
88
  8
0
  6
CONTINUOUS
 62
     7
 10
25.42
 20
43.25
 30
0.0
 11
25.42
 21
5.0
 31
0.0
  0
LINE
  5
89
  8
0
  6
CONTINUOUS
 62
     7
 10
50.82
 20
5.0
 30
0.0
 11
50.82
 21
43.25
 31
0.0
  0
LINE
  5
8A
  8
0
  6
CONTINUOUS
 62
     7
 10
71.14
 20
22.0
 30
0.0
 11
205.0
 21
22.0
 31
0.0
  0
LINE
  5
8B
  8
0
  6
CONTINUOUS
 62
     7
 10
205.0
 20
43.25
 30
0.0
 11
17.8
 21
43.25
 31
0.0
  0
LINE
  5
8C
  8
0
  6
CONTINUOUS
 62
     7
 10
17.8
 20
60.25
 30
0.0
 11
205.0
 21
60.25
 31
0.0
  0
LINE
  5
8D
  8
0
  6
CONTINUOUS
 62
     7
 10
71.14
 20
38.9447711707
 30
0.0
 11
17.8
 21
38.9447711707
 31
0.0
  0
LINE
  5
8E
  8
0
  6
CONTINUOUS
 62
     7
 10
71.14
 20
5.0
 30
0.0
 11
71.14
 21
60.25
 31
0.0
  0
LINE
  5
8F
  8
0
  6
CONTINUOUS
 62
     7
 10
114.32
 20
60.25
 30
0.0
 11
114.32
 21
5.0
 31
0.0
  0
LINE
  5
90
  8
0
  6
CONTINUOUS
 62
     7
 10
63.52
 20
43.25
 30
0.0
 11
63.52
 21
5.0
 31
0.0
  0
LINE
  5
91
  8
0
  6
CONTINUOUS
 62
     7
 10
82.5524019
 20
22.0
 30
0.0
 11
82.5524019
 21
43.25
 31
0.0
  0
LINE
  5
92
  8
0
  6
CONTINUOUS
 62
     7
 10
71.14
 20
13.5
 30
0.0
 11
17.8
 21
13.5
 31
0.0
  0
LINE
  5
93
  8
0
  6
CONTINUOUS
 62
     7
 10
96.6969257405
 20
60.25
 30
0.0
 11
96.6969257405
 21
22.0
 31
0.0
  0
LINE
  5
94
  8
0
  6
CONTINUOUS
 62
     7
 10
158.48
 20
5.0
 30
0.0
 11
158.48
 21
9.25
 31
0.0
  0
LINE
  5
95
  8
0
  6
CONTINUOUS
 62
     7
 10
166.28
 20
53.875
 30
0.0
 11
166.28
 21
60.25
 31
0.0
  0
LINE
  5
96
  8
0
  6
CONTINUOUS
 62
     7
 10
17.8
 20
9.23
 30
0.0
 11
71.14
 21
9.23
 31
0.0
  0
LINE
  5
97
  8
0
  6
CONTINUOUS
 62
     7
 10
189.68
 20
9.25
 30
0.0
 11
189.68
 21
22.0
 31
0.0
  0
LINE
  5
98
  8
0
  6
CONTINUOUS
 62
     7
 10
205.0
 20
53.875
 30
0.0
 11
114.32
 21
53.875
 31
0.0
  0
LINE
  5
99
  8
0
  6
CONTINUOUS
 62
     7
 10
205.0
 20
5.0
 30
0.0
 11
205.0
 21
60.25
 31
0.0
  0
LINE
  5
9A
  8
0
  6
CONTINUOUS
 62
     7
 10
17.8
 20
5.0
 30
0.0
 11
205.0
 21
5.0
 31
0.0
  0
LINE
  5
9B
  8
0
  6
CONTINUOUS
 62
     7
 10
71.14
 20
17.75
 30
0.0
 11
17.8
 21
17.75
 31
0.0
  0
LINE
  5
9C
  8
0
  6
CONTINUOUS
 62
     7
 10
71.14
 20
22.0
 30
0.0
 11
17.8
 21
22.0
 31
0.0
  0
LINE
  5
9D
  8
0
  6
CONTINUOUS
 62
     7
 10
114.32
 20
26.25
 30
0.0
 11
17.8
 21
26.25
 31
0.0
  0
LINE
  5
9E
  8
0
  6
CONTINUOUS
 62
     7
 10
114.32
 20
30.5
 30
0.0
 11
17.8
 21
30.5
 31
0.0
  0
LINE
  5
9F
  8
0
  6
CONTINUOUS
 62
     7
 10
114.32
 20
34.75
 30
0.0
 11
17.8
 21
34.75
 31
0.0
  0
LINE
  5
A0
  8
0
  6
CONTINUOUS
 62
     7
 10
114.32
 20
38.9447711707
 30
0.0
 11
71.14
 21
38.9447711707
 31
0.0
  0
LINE
  5
A1
  8
0
  6
CONTINUOUS
 62
     7
 10
17.8
 20
291.3419137656
 30
0.0
 11
205.0
 21
291.3419137656
 31
0.0
  0
LINE
  5
A2
  8
0
  6
CONTINUOUS
 62
     7
 10
205.0
 20
13.5
 30
0.0
 11
189.68
 21
13.5
 31
0.0
  0
LINE
  5
A3
  8
0
  6
CONTINUOUS
 62
     7
 10
114.32
 20
9.23
 30
0.0
 11
205.0
 21
9.23
 31
0.0
  0
LINE
  5
A4
  8
0
  6
CONTINUOUS
 62
     7
 10
12.8
 20
285.7710619541
 30
0.0
 11
12.8
 21
5.0
 31
0.0
  0
LINE
  5
A5
  8
0
  6
CONTINUOUS
 62
     7
 10
17.8
 20
48.5
 30
0.0
 11
12.8
 21
48.5
 31
0.0
  0
LINE
  5
A6
  8
0
  6
CONTINUOUS
 62
     7
 10
12.8
 20
5.0
 30
0.0
 11
17.8
 21
5.0
 31
0.0
  0
LINE
  5
A7
  8
0
  6
CONTINUOUS
 62
     7
 10
17.8
 20
285.7710619541
 30
0.0
 11
17.8
 21
60.25
 31
0.0
  0
LINE
  5
A8
  8
0
  6
CONTINUOUS
 62
     7
 10
205.0
 20
60.25
 30
0.0
 11
205.0
 21
285.7710619541
 31
0.0
  0
LINE
  5
A9
  8
0
  6
CONTINUOUS
 62
     7
 10
205.0
 20
285.7710619541
 30
0.0
 11
17.8
 21
285.7710619541
 31
0.0
  0
LINE
  5
AA
  8
0
  6
CONTINUOUS
 62
     7
 10
12.8
 20
98.5
 30
0.0
 11
17.8
 21
98.5
 31
0.0
  0
LINE
  5
AB
  8
0
  6
CONTINUOUS
 62
     7
 10
12.8
 20
198.5
 30
0.0
 11
17.8
 21
198.5
 31
0.0
  0
LINE
  5
AC
  8
0
  6
CONTINUOUS
 62
     7
 10
17.8
 20
248.5
 30
0.0
 11
12.8
 21
248.5
 31
0.0
  0
LINE
  5
AD
  8
0
  6
CONTINUOUS
 62
     7
 10
58.9
 20
285.7710619541
 30
0.0
 11
58.9
 21
291.3419137656
 31
0.0
  0
LINE
  5
AE
  8
0
  6
CONTINUOUS
 62
     7
 10
158.9
 20
285.7710619541
 30
0.0
 11
158.9
 21
291.3419137656
 31
0.0
  0
LINE
  5
AF
  8
0
  6
CONTINUOUS
 62
     7
 10
17.8
 20
285.7710619541
 30
0.0
 11
12.8
 21
285.7710619541
 31
0.0
  0
LINE
  5
B0
  8
0
  6
CONTINUOUS
 62
     7
 10
17.8
 20
285.7710619541
 30
0.0
 11
17.8
 21
291.3419137656
 31
0.0
  0
LINE
  5
B1
  8
0
  6
CONTINUOUS
 62
     7
 10
205.0
 20
285.7710619541
 30
0.0
 11
205.0
 21
291.3419137656
 31
0.0
  0
LINE
  5
B2
  8
0
  6
CONTINUOUS
 62
     7
 10
108.9
 20
291.3419137656
 30
0.0
 11
108.9
 21
285.7710619541
 31
0.0
  0
LINE
  5
B3
  8
0
  6
CONTINUOUS
 62
     7
 10
12.8
 20
148.5
 30
0.0
 11
17.8
 21
148.5
 31
0.0
  0
INSERT
  5
B4
  8
0
  6
CONTINUOUS
 62
     7
  2
PROJEKTIONSMETHODE_1
 10
71.14
 20
45.560969046
 30
0.0
  0
TEXT
  5
B5
  8
0
  6
CONTINUOUS
 62
   154
 10
20.4180429688
 20
64.2930597795
 30
0.0
 40
3.5
  1
Unbemaßte Radien R0,2
 41
0.6666666667
 11
20.4180429688
 21
63.0566495628
 31
0.0
 73
     1
  0
TEXT
  5
B6
  8
0
  6
CONTINUOUS
 62
     7
 10
14.4666666667
 20
171.4864142358
 30
0.0
 40
3.5
  1
C
 41
0.7
 11
14.4666666667
 21
170.2500040191
 31
0.0
 73
     1
  0
TEXT
  5
B7
  8
0
  6
CONTINUOUS
 62
     7
 10
83.0666696667
 20
287.0096632562
 30
0.0
 40
3.5
  1
2
 41
0.7
 11
83.0666696667
 21
285.7732530394
 31
0.0
 73
     1
  0
TEXT
  5
B8
  8
0
  6
CONTINUOUS
 62
     7
 10
133.0666696667
 20
287.0096632562
 30
0.0
 40
3.5
  1
3
 41
0.7
 11
133.0666696667
 21
285.7732530394
 31
0.0
 73
     1
  0
TEXT
  5
B9
  8
0
  6
CONTINUOUS
 62
     7
 10
33.4833363333
 20
287.0096632562
 30
0.0
 40
3.5
  1
1
 41
0.7
 11
33.4833363333
 21
285.7732530394
 31
0.0
 73
     1
  0
TEXT
  5
BA
  8
0
  6
CONTINUOUS
 62
     7
 10
183.0666606667
 20
287.0096632562
 30
0.0
 40
3.5
  1
4
 41
0.7
 11
183.0666606667
 21
285.7732530394
 31
0.0
 73
     1
  0
TEXT
  5
BB
  8
0
  6
CONTINUOUS
 62
     7
 10
14.4666666667
 20
221.4864142358
 30
0.0
 40
3.5
  1
B
 41
0.7
 11
14.4666666667
 21
220.2500040191
 31
0.0
 73
     1
  0
TEXT
  5
BC
  8
0
  6
CONTINUOUS
 62
     7
 10
14.4666666667
 20
271.4864142358
 30
0.0
 40
3.5
  1
A
 41
0.7
 11
14.4666666667
 21
270.2500040191
 31
0.0
 73
     1
  0
TEXT
  5
BD
  8
0
  6
CONTINUOUS
 62
     7
 10
14.4666666667
 20
121.4864142358
 30
0.0
 40
3.5
  1
D
 41
0.7
 11
14.4666666667
 21
120.2500040191
 31
0.0
 73
     1
  0
TEXT
  5
BE
  8
0
  6
CONTINUOUS
 62
     7
 10
14.4666666667
 20
71.4864142358
 30
0.0
 40
3.5
  1
E
 41
0.7
 11
14.4666666667
 21
70.2500040191
 31
0.0
 73
     1
  0
TEXT
  5
BF
  8
0
  6
CONTINUOUS
 62
     7
 10
14.4666666667
 20
21.4864142358
 30
0.0
 40
3.5
  1
F
 41
0.7
 11
14.4666666667
 21
20.2500040191
 31
0.0
 73
     1
  0
TEXT
  5
C0
  8
0
  6
CONTINUOUS
 62
     7
 10
145.6982796021
 20
15.0303025809
 30
0.0
 40
3.5
  1
PR331
 41
0.7
 11
145.6982796021
 21
13.7938923642
 31
0.0
 73
     1
  0
TEXT
  5
C1
  8
0
  6
CONTINUOUS
 62
     7
 10
167.2711097958
 20
55.8075709505
 30
0.0
 40
2.5
  1
Weight: 
 41
0.7
 11
167.2711097958
 21
54.9244207958
 31
0.0
 73
     1
  0
TEXT
  5
C2
  8
0
  6
CONTINUOUS
 62
     7
 10
71.9346052427
 20
57.0429618329
 30
0.0
 40
2.0
  1
Projectionsmethods
 41
0.7
 11
71.9346052427
 21
56.3364417091
 31
0.0
 73
     1
  0
TEXT
  5
C3
  8
0
  6
CONTINUOUS
 62
     7
 10
97.8232489644
 20
36.2793040536
 30
0.0
 40
1.8520833333
  1
Sommerburg
 41
0.7
 11
97.8232489644
 21
35.6250369806
 31
0.0
 73
     1
  0
INSERT
  5
CC
  8
0
  6
CONTINUOUS
 62
     7
  2
SW_NOTE_0
 10
19.6256020674
 20
56.5739582943
 30
0.0
  0
TEXT
  5
CD
  8
0
  6
CONTINUOUS
 62
     7
 10
99.908846596
 20
57.0485173467
 30
0.0
 40
2.0
  1
Surface
 41
0.7
 11
99.908846596
 21
56.3419972228
 31
0.0
 73
     1
  0
TEXT
  5
CE
  8
0
  6
CONTINUOUS
 62
     7
 10
115.8260642912
 20
18.6731952579
 30
0.0
 40
2.5
  1
Drawing No.:
 41
0.7
 11
115.8260642912
 21
17.7900451031
 31
0.0
 73
     1
  0
TEXT
  5
CF
  8
0
  6
CONTINUOUS
 62
     7
 10
115.8260642912
 20
38.8860690348
 30
0.0
 40
2.5
  1
Title:
 41
0.7
 11
115.8260642912
 21
38.00291888
 31
0.0
 73
     1
  0
INSERT
  5
D5
  8
0
  6
CONTINUOUS
 62
     7
  2
SW_NOTE_0_1
 10
115.9359874232
 20
47.6571545989
 30
0.0
  0
TEXT
  5
D6
  8
0
  6
CONTINUOUS
 62
     7
 10
159.7478047655
 20
6.0126746831
 30
0.0
 40
2.0
  1
replaced by:
 41
0.7
 11
159.7478047655
 21
5.3061545592
 31
0.0
 73
     1
  0
TEXT
  5
D7
  8
0
  6
CONTINUOUS
 62
     7
 10
115.769379396
 20
6.0126746831
 30
0.0
 40
2.0
  1
replaces:
 41
0.7
 11
115.769379396
 21
5.3061545592
 31
0.0
 73
     1
  0
TEXT
  5
D8
  8
0
  6
CONTINUOUS
 62
     7
 10
191.6114022462
 20
10.7163935227
 30
0.0
 40
2.0
  1
1 von 1
 41
0.6
 11
191.6114022462
 21
10.0098733989
 31
0.0
 73
     1
  0
TEXT
  5
D9
  8
0
  6
CONTINUOUS
 62
     7
 10
191.6114022462
 20
14.9434680153
 30
0.0
 40
2.0
  1
1 (A4)
 41
0.7
 11
191.6114022462
 21
14.2369478915
 31
0.0
 73
     1
  0
TEXT
  5
DA
  8
0
  6
CONTINUOUS
 62
     7
 10
190.679992
 20
18.8834825574
 30
0.0
 40
2.5
  1
Page
 41
0.7
 11
190.679992
 21
18.0003324026
 31
0.0
 73
     1
  0
TEXT
  5
DB
  8
0
  6
CONTINUOUS
 62
     7
 10
100.9758605414
 20
40.2399684874
 30
0.0
 40
2.0
  1
Name
 41
0.7
 11
100.9758605414
 21
39.5334483635
 31
0.0
 73
     1
  0
TEXT
  5
DC
  8
0
  6
CONTINUOUS
 62
     7
 10
85.971671085
 20
40.2399684874
 30
0.0
 40
2.0
  1
Date
 41
0.7
 11
85.971671085
 21
39.5334483635
 31
0.0
 73
     1
  0
TEXT
  5
DD
  8
0
  6
CONTINUOUS
 62
     7
 10
115.7973605375
 20
55.5835732836
 30
0.0
 40
2.5
  1
Scale: 1:1
 41
0.7
 11
115.7973605375
 21
54.7004231288
 31
0.0
 73
     1
  0
TEXT
  5
DE
  8
0
  6
CONTINUOUS
 62
     7
 10
71.2070226286
 20
27.6922060911
 30
0.0
 40
2.0
  1
approved
 41
0.7
 11
71.2070226286
 21
26.9856859672
 31
0.0
 73
     1
  0
TEXT
  5
DF
  8
0
  6
CONTINUOUS
 62
     7
 10
71.1752265575
 20
31.7885543208
 30
0.0
 40
2.0
  1
checked
 41
0.7
 11
71.1752265575
 21
31.082034197
 31
0.0
 73
     1
  0
TEXT
  5
E0
  8
0
  6
CONTINUOUS
 62
     7
 10
71.1752265575
 20
36.2991149482
 30
0.0
 40
2.0
  1
drawn
 41
0.7
 11
71.1752265575
 21
35.5925948244
 31
0.0
 73
     1
  0
TEXT
  5
E1
  8
0
  6
CONTINUOUS
 62
     7
 10
63.7487245318
 20
5.8293213552
 30
0.0
 40
2.0
  1
Name
 41
0.7
 11
63.7487245318
 21
5.1228012314
 31
0.0
 73
     1
  0
TEXT
  5
E2
  8
0
  6
CONTINUOUS
 62
     7
 10
54.3471622189
 20
5.8293213552
 30
0.0
 40
2.0
  1
Date
 41
0.7
 11
54.3471622189
 21
5.1228012314
 31
0.0
 73
     1
  0
TEXT
  5
E3
  8
0
  6
CONTINUOUS
 62
     7
 10
32.3236265502
 20
5.8405442472
 30
0.0
 40
2.0
  1
Revision
 41
0.7
 11
32.3236265502
 21
5.1340241233
 31
0.0
 73
     1
  0
TEXT
  5
E4
  8
0
  6
CONTINUOUS
 62
     7
 10
18.0176159004
 20
5.8405442472
 30
0.0
 40
2.0
  1
Agree
 41
0.7
 11
18.0176159004
 21
5.1340241233
 31
0.0
 73
     1
  0
TEXT
  5
E5
  8
0
  6
CONTINUOUS
 62
     7
 10
147.3833789273
 20
31.8991350896
 30
0.0
 40
3.5
  1
Alu-Profil
 41
0.7
 11
147.3833789273
 21
30.6627248729
 31
0.0
 73
     1
  0
TEXT
  5
E6
  8
0
  6
CONTINUOUS
 62
     7
 10
83.2162367573
 20
36.2793040536
 30
0.0
 40
1.8520833333
  1
19.03.2019
 41
0.7
 11
83.2162367573
 21
35.6250369806
 31
0.0
 73
     1
  0
LINE
  5
E7
  8
0
  6
CONTINUOUS
 62
     7
 10
25.8563908528
 20
229.7709121246
 30
0.0
 11
25.8563908528
 21
240.7709121246
 31
0.0
  0
LINE
  5
E8
  8
0
  6
CONTINUOUS
 62
     7
 10
25.8563908528
 20
240.7709121246
 30
0.0
 11
26.6663908528
 21
240.7709121246
 31
0.0
  0
LINE
  5
E9
  8
0
  6
CONTINUOUS
 62
     7
 10
26.6663908528
 20
240.7709121246
 30
0.0
 11
26.8590777164
 21
237.7709121246
 31
0.0
  0
LINE
  5
EA
  8
0
  6
CONTINUOUS
 62
     7
 10
26.8590777164
 20
237.7709121246
 30
0.0
 11
29.8590777164
 21
237.7709121246
 31
0.0
  0
LINE
  5
EB
  8
0
  6
CONTINUOUS
 62
     7
 10
29.8590777164
 20
237.7709121246
 30
0.0
 11
30.05176458
 21
240.7709121246
 31
0.0
  0
LINE
  5
EC
  8
0
  6
CONTINUOUS
 62
     7
 10
30.05176458
 20
240.7709121246
 30
0.0
 11
31.66176458
 21
240.7709121246
 31
0.0
  0
LINE
  5
ED
  8
0
  6
CONTINUOUS
 62
     7
 10
31.66176458
 20
240.7709121246
 30
0.0
 11
31.8698158481
 21
237.5316990685
 31
0.0
  0
LINE
  5
EE
  8
0
  6
CONTINUOUS
 62
     7
 10
31.8698158481
 20
237.5316990685
 30
0.0
 11
34.8698158481
 21
237.5316990685
 31
0.0
  0
LINE
  5
EF
  8
0
  6
CONTINUOUS
 62
     7
 10
34.8698158481
 20
237.5316990685
 30
0.0
 11
35.0778486686
 21
240.7706249097
 31
0.0
  0
LINE
  5
F0
  8
0
  6
CONTINUOUS
 62
     7
 10
35.0778486686
 20
240.7706249097
 30
0.0
 11
36.6878486686
 21
240.7706249097
 31
0.0
  0
LINE
  5
F1
  8
0
  6
CONTINUOUS
 62
     7
 10
36.6878486686
 20
240.7706249097
 30
0.0
 11
36.8958999367
 21
237.5314118536
 31
0.0
  0
LINE
  5
F2
  8
0
  6
CONTINUOUS
 62
     7
 10
36.8958999367
 20
237.5314118536
 30
0.0
 11
39.8958999367
 21
237.5314118536
 31
0.0
  0
LINE
  5
F3
  8
0
  6
CONTINUOUS
 62
     7
 10
39.8958999367
 20
237.5314118536
 30
0.0
 11
40.1039327573
 21
240.7703376948
 31
0.0
  0
LINE
  5
F4
  8
0
  6
CONTINUOUS
 62
     7
 10
40.1039327573
 20
240.7703376948
 30
0.0
 11
41.7139327573
 21
240.7703376948
 31
0.0
  0
LINE
  5
F5
  8
0
  6
CONTINUOUS
 62
     7
 10
41.7139327573
 20
240.7703376948
 30
0.0
 11
41.9219840254
 21
237.5311246387
 31
0.0
  0
LINE
  5
F6
  8
0
  6
CONTINUOUS
 62
     7
 10
41.9219840254
 20
237.5311246387
 30
0.0
 11
44.9219840254
 21
237.5311246387
 31
0.0
  0
LINE
  5
F7
  8
0
  6
CONTINUOUS
 62
     7
 10
44.9219840254
 20
237.5311246387
 30
0.0
 11
45.1300168459
 21
240.7700504799
 31
0.0
  0
LINE
  5
F8
  8
0
  6
CONTINUOUS
 62
     7
 10
45.1300168459
 20
240.7700504799
 30
0.0
 11
46.7400168459
 21
240.7700504799
 31
0.0
  0
LINE
  5
F9
  8
0
  6
CONTINUOUS
 62
     7
 10
46.7400168459
 20
240.7700504799
 30
0.0
 11
46.948068114
 21
237.5308374239
 31
0.0
  0
LINE
  5
FA
  8
0
  6
CONTINUOUS
 62
     7
 10
46.948068114
 20
237.5308374239
 30
0.0
 11
49.948068114
 21
237.5308374239
 31
0.0
  0
LINE
  5
FB
  8
0
  6
CONTINUOUS
 62
     7
 10
49.948068114
 20
237.5308374239
 30
0.0
 11
50.1561009346
 21
240.769763265
 31
0.0
  0
LINE
  5
FC
  8
0
  6
CONTINUOUS
 62
     7
 10
50.1561009346
 20
240.769763265
 30
0.0
 11
51.7661009346
 21
240.769763265
 31
0.0
  0
LINE
  5
FD
  8
0
  6
CONTINUOUS
 62
     7
 10
51.7661009346
 20
240.769763265
 30
0.0
 11
51.9741522026
 21
237.530550209
 31
0.0
  0
LINE
  5
FE
  8
0
  6
CONTINUOUS
 62
     7
 10
51.9741522026
 20
237.530550209
 30
0.0
 11
54.9741522026
 21
237.530550209
 31
0.0
  0
LINE
  5
FF
  8
0
  6
CONTINUOUS
 62
     7
 10
54.9741522026
 20
237.530550209
 30
0.0
 11
55.1821850232
 21
240.7694760502
 31
0.0
  0
LINE
  5
100
  8
0
  6
CONTINUOUS
 62
     7
 10
55.1821850232
 20
240.7694760502
 30
0.0
 11
56.7921850232
 21
240.7694760502
 31
0.0
  0
LINE
  5
101
  8
0
  6
CONTINUOUS
 62
     7
 10
56.7921850232
 20
240.7694760502
 30
0.0
 11
57.0002362913
 21
237.5302629941
 31
0.0
  0
LINE
  5
102
  8
0
  6
CONTINUOUS
 62
     7
 10
57.0002362913
 20
237.5302629941
 30
0.0
 11
60.0002362913
 21
237.5302629941
 31
0.0
  0
LINE
  5
103
  8
0
  6
CONTINUOUS
 62
     7
 10
60.0002362913
 20
237.5302629941
 30
0.0
 11
60.2082691118
 21
240.7691888353
 31
0.0
  0
LINE
  5
104
  8
0
  6
CONTINUOUS
 62
     7
 10
60.2082691118
 20
240.7691888353
 30
0.0
 11
61.8182691118
 21
240.7691888353
 31
0.0
  0
LINE
  5
105
  8
0
  6
CONTINUOUS
 62
     7
 10
61.8182691118
 20
240.7691888353
 30
0.0
 11
62.0263203799
 21
237.5299757792
 31
0.0
  0
LINE
  5
106
  8
0
  6
CONTINUOUS
 62
     7
 10
62.0263203799
 20
237.5299757792
 30
0.0
 11
65.0263203799
 21
237.5299757792
 31
0.0
  0
LINE
  5
107
  8
0
  6
CONTINUOUS
 62
     7
 10
65.0263203799
 20
237.5299757792
 30
0.0
 11
65.2343532005
 21
240.7689016204
 31
0.0
  0
LINE
  5
108
  8
0
  6
CONTINUOUS
 62
     7
 10
65.2343532005
 20
240.7689016204
 30
0.0
 11
66.8443532005
 21
240.7689016204
 31
0.0
  0
LINE
  5
109
  8
0
  6
CONTINUOUS
 62
     7
 10
66.8443532005
 20
240.7689016204
 30
0.0
 11
67.0524044686
 21
237.5296885643
 31
0.0
  0
LINE
  5
10A
  8
0
  6
CONTINUOUS
 62
     7
 10
67.0524044686
 20
237.5296885643
 30
0.0
 11
70.0524044686
 21
237.5296885643
 31
0.0
  0
LINE
  5
10B
  8
0
  6
CONTINUOUS
 62
     7
 10
70.0524044686
 20
237.5296885643
 30
0.0
 11
70.2604372891
 21
240.7686144055
 31
0.0
  0
LINE
  5
10C
  8
0
  6
CONTINUOUS
 62
     7
 10
70.2604372891
 20
240.7686144055
 30
0.0
 11
71.8704372891
 21
240.7686144055
 31
0.0
  0
LINE
  5
10D
  8
0
  6
CONTINUOUS
 62
     7
 10
71.8704372891
 20
240.7686144055
 30
0.0
 11
72.0784885572
 21
237.5294013494
 31
0.0
  0
LINE
  5
10E
  8
0
  6
CONTINUOUS
 62
     7
 10
72.0784885572
 20
237.5294013494
 30
0.0
 11
75.0784885572
 21
237.5294013494
 31
0.0
  0
LINE
  5
10F
  8
0
  6
CONTINUOUS
 62
     7
 10
75.0784885572
 20
237.5294013494
 30
0.0
 11
75.2865213778
 21
240.7683271906
 31
0.0
  0
LINE
  5
110
  8
0
  6
CONTINUOUS
 62
     7
 10
75.2865213778
 20
240.7683271906
 30
0.0
 11
76.8965213778
 21
240.7683271906
 31
0.0
  0
LINE
  5
111
  8
0
  6
CONTINUOUS
 62
     7
 10
76.8965213778
 20
240.7683271906
 30
0.0
 11
77.1045726459
 21
237.5291141345
 31
0.0
  0
LINE
  5
112
  8
0
  6
CONTINUOUS
 62
     7
 10
77.1045726459
 20
237.5291141345
 30
0.0
 11
80.1045726459
 21
237.5291141345
 31
0.0
  0
LINE
  5
113
  8
0
  6
CONTINUOUS
 62
     7
 10
80.1045726459
 20
237.5291141345
 30
0.0
 11
80.3126054664
 21
240.7680399757
 31
0.0
  0
LINE
  5
114
  8
0
  6
CONTINUOUS
 62
     7
 10
80.3126054664
 20
240.7680399757
 30
0.0
 11
81.9226054664
 21
240.7680399757
 31
0.0
  0
LINE
  5
115
  8
0
  6
CONTINUOUS
 62
     7
 10
81.9226054664
 20
240.7680399757
 30
0.0
 11
82.1306567345
 21
237.5288269197
 31
0.0
  0
LINE
  5
116
  8
0
  6
CONTINUOUS
 62
     7
 10
82.1306567345
 20
237.5288269197
 30
0.0
 11
85.1306567345
 21
237.5288269197
 31
0.0
  0
LINE
  5
117
  8
0
  6
CONTINUOUS
 62
     7
 10
85.1306567345
 20
237.5288269197
 30
0.0
 11
85.3386895551
 21
240.7677527608
 31
0.0
  0
LINE
  5
118
  8
0
  6
CONTINUOUS
 62
     7
 10
85.3386895551
 20
240.7677527608
 30
0.0
 11
86.9486895551
 21
240.7677527608
 31
0.0
  0
LINE
  5
119
  8
0
  6
CONTINUOUS
 62
     7
 10
86.9486895551
 20
240.7677527608
 30
0.0
 11
87.1567408231
 21
237.5285397048
 31
0.0
  0
LINE
  5
11A
  8
0
  6
CONTINUOUS
 62
     7
 10
87.1567408231
 20
237.5285397048
 30
0.0
 11
90.1567408231
 21
237.5285397048
 31
0.0
  0
LINE
  5
11B
  8
0
  6
CONTINUOUS
 62
     7
 10
90.3647920912
 20
240.7677527608
 30
0.0
 11
90.1567408231
 21
237.5285397048
 31
0.0
  0
LINE
  5
11C
  8
0
  6
CONTINUOUS
 62
     7
 10
91.9747920912
 20
240.7677527608
 30
0.0
 11
90.3647920912
 21
240.7677527608
 31
0.0
  0
LINE
  5
11D
  8
0
  6
CONTINUOUS
 62
     7
 10
92.1828249118
 20
237.5288269197
 30
0.0
 11
91.9747920912
 21
240.7677527608
 31
0.0
  0
LINE
  5
11E
  8
0
  6
CONTINUOUS
 62
     7
 10
95.1828249118
 20
237.5288269197
 30
0.0
 11
92.1828249118
 21
237.5288269197
 31
0.0
  0
LINE
  5
11F
  8
0
  6
CONTINUOUS
 62
     7
 10
95.3908761799
 20
240.7680399757
 30
0.0
 11
95.1828249118
 21
237.5288269197
 31
0.0
  0
LINE
  5
120
  8
0
  6
CONTINUOUS
 62
     7
 10
97.0008761799
 20
240.7680399757
 30
0.0
 11
95.3908761799
 21
240.7680399757
 31
0.0
  0
LINE
  5
121
  8
0
  6
CONTINUOUS
 62
     7
 10
97.2089090004
 20
237.5291141345
 30
0.0
 11
97.0008761799
 21
240.7680399757
 31
0.0
  0
LINE
  5
122
  8
0
  6
CONTINUOUS
 62
     7
 10
100.2089090004
 20
237.5291141345
 30
0.0
 11
97.2089090004
 21
237.5291141345
 31
0.0
  0
LINE
  5
123
  8
0
  6
CONTINUOUS
 62
     7
 10
100.4169602685
 20
240.7683271906
 30
0.0
 11
100.2089090004
 21
237.5291141345
 31
0.0
  0
LINE
  5
124
  8
0
  6
CONTINUOUS
 62
     7
 10
102.0269602685
 20
240.7683271906
 30
0.0
 11
100.4169602685
 21
240.7683271906
 31
0.0
  0
LINE
  5
125
  8
0
  6
CONTINUOUS
 62
     7
 10
102.2349930891
 20
237.5294013494
 30
0.0
 11
102.0269602685
 21
240.7683271906
 31
0.0
  0
LINE
  5
126
  8
0
  6
CONTINUOUS
 62
     7
 10
105.2349930891
 20
237.5294013494
 30
0.0
 11
102.2349930891
 21
237.5294013494
 31
0.0
  0
LINE
  5
127
  8
0
  6
CONTINUOUS
 62
     7
 10
105.4430443571
 20
240.7686144055
 30
0.0
 11
105.2349930891
 21
237.5294013494
 31
0.0
  0
LINE
  5
128
  8
0
  6
CONTINUOUS
 62
     7
 10
107.0530443571
 20
240.7686144055
 30
0.0
 11
105.4430443571
 21
240.7686144055
 31
0.0
  0
LINE
  5
129
  8
0
  6
CONTINUOUS
 62
     7
 10
107.2610771777
 20
237.5296885643
 30
0.0
 11
107.0530443571
 21
240.7686144055
 31
0.0
  0
LINE
  5
12A
  8
0
  6
CONTINUOUS
 62
     7
 10
110.2610771777
 20
237.5296885643
 30
0.0
 11
107.2610771777
 21
237.5296885643
 31
0.0
  0
LINE
  5
12B
  8
0
  6
CONTINUOUS
 62
     7
 10
110.4691284458
 20
240.7689016204
 30
0.0
 11
110.2610771777
 21
237.5296885643
 31
0.0
  0
LINE
  5
12C
  8
0
  6
CONTINUOUS
 62
     7
 10
112.0791284458
 20
240.7689016204
 30
0.0
 11
110.4691284458
 21
240.7689016204
 31
0.0
  0
LINE
  5
12D
  8
0
  6
CONTINUOUS
 62
     7
 10
112.2871612663
 20
237.5299757792
 30
0.0
 11
112.0791284458
 21
240.7689016204
 31
0.0
  0
LINE
  5
12E
  8
0
  6
CONTINUOUS
 62
     7
 10
115.2871612663
 20
237.5299757792
 30
0.0
 11
112.2871612663
 21
237.5299757792
 31
0.0
  0
LINE
  5
12F
  8
0
  6
CONTINUOUS
 62
     7
 10
115.4952125344
 20
240.7691888353
 30
0.0
 11
115.2871612663
 21
237.5299757792
 31
0.0
  0
LINE
  5
130
  8
0
  6
CONTINUOUS
 62
     7
 10
117.1052125344
 20
240.7691888353
 30
0.0
 11
115.4952125344
 21
240.7691888353
 31
0.0
  0
LINE
  5
131
  8
0
  6
CONTINUOUS
 62
     7
 10
117.313245355
 20
237.5302629941
 30
0.0
 11
117.1052125344
 21
240.7691888353
 31
0.0
  0
LINE
  5
132
  8
0
  6
CONTINUOUS
 62
     7
 10
120.313245355
 20
237.5302629941
 30
0.0
 11
117.313245355
 21
237.5302629941
 31
0.0
  0
LINE
  5
133
  8
0
  6
CONTINUOUS
 62
     7
 10
120.5212966231
 20
240.7694760502
 30
0.0
 11
120.313245355
 21
237.5302629941
 31
0.0
  0
LINE
  5
134
  8
0
  6
CONTINUOUS
 62
     7
 10
122.1312966231
 20
240.7694760502
 30
0.0
 11
120.5212966231
 21
240.7694760502
 31
0.0
  0
LINE
  5
135
  8
0
  6
CONTINUOUS
 62
     7
 10
122.3393294436
 20
237.530550209
 30
0.0
 11
122.1312966231
 21
240.7694760502
 31
0.0
  0
LINE
  5
136
  8
0
  6
CONTINUOUS
 62
     7
 10
125.3393294436
 20
237.530550209
 30
0.0
 11
122.3393294436
 21
237.530550209
 31
0.0
  0
LINE
  5
137
  8
0
  6
CONTINUOUS
 62
     7
 10
125.5473807117
 20
240.769763265
 30
0.0
 11
125.3393294436
 21
237.530550209
 31
0.0
  0
LINE
  5
138
  8
0
  6
CONTINUOUS
 62
     7
 10
127.1573807117
 20
240.769763265
 30
0.0
 11
125.5473807117
 21
240.769763265
 31
0.0
  0
LINE
  5
139
  8
0
  6
CONTINUOUS
 62
     7
 10
127.3654135323
 20
237.5308374239
 30
0.0
 11
127.1573807117
 21
240.769763265
 31
0.0
  0
LINE
  5
13A
  8
0
  6
CONTINUOUS
 62
     7
 10
130.3654135323
 20
237.5308374239
 30
0.0
 11
127.3654135323
 21
237.5308374239
 31
0.0
  0
LINE
  5
13B
  8
0
  6
CONTINUOUS
 62
     7
 10
130.5734648004
 20
240.7700504799
 30
0.0
 11
130.3654135323
 21
237.5308374239
 31
0.0
  0
LINE
  5
13C
  8
0
  6
CONTINUOUS
 62
     7
 10
132.1834648004
 20
240.7700504799
 30
0.0
 11
130.5734648004
 21
240.7700504799
 31
0.0
  0
LINE
  5
13D
  8
0
  6
CONTINUOUS
 62
     7
 10
132.3914976209
 20
237.5311246387
 30
0.0
 11
132.1834648004
 21
240.7700504799
 31
0.0
  0
LINE
  5
13E
  8
0
  6
CONTINUOUS
 62
     7
 10
135.3914976209
 20
237.5311246387
 30
0.0
 11
132.3914976209
 21
237.5311246387
 31
0.0
  0
LINE
  5
13F
  8
0
  6
CONTINUOUS
 62
     7
 10
135.599548889
 20
240.7703376948
 30
0.0
 11
135.3914976209
 21
237.5311246387
 31
0.0
  0
LINE
  5
140
  8
0
  6
CONTINUOUS
 62
     7
 10
137.209548889
 20
240.7703376948
 30
0.0
 11
135.599548889
 21
240.7703376948
 31
0.0
  0
LINE
  5
141
  8
0
  6
CONTINUOUS
 62
     7
 10
137.4175817096
 20
237.5314118536
 30
0.0
 11
137.209548889
 21
240.7703376948
 31
0.0
  0
LINE
  5
142
  8
0
  6
CONTINUOUS
 62
     7
 10
140.4175817096
 20
237.5314118536
 30
0.0
 11
137.4175817096
 21
237.5314118536
 31
0.0
  0
LINE
  5
143
  8
0
  6
CONTINUOUS
 62
     7
 10
140.6256329776
 20
240.7706249097
 30
0.0
 11
140.4175817096
 21
237.5314118536
 31
0.0
  0
LINE
  5
144
  8
0
  6
CONTINUOUS
 62
     7
 10
142.2356329776
 20
240.7706249097
 30
0.0
 11
140.6256329776
 21
240.7706249097
 31
0.0
  0
LINE
  5
145
  8
0
  6
CONTINUOUS
 62
     7
 10
142.4436657982
 20
237.5316990685
 30
0.0
 11
142.2356329776
 21
240.7706249097
 31
0.0
  0
LINE
  5
146
  8
0
  6
CONTINUOUS
 62
     7
 10
145.4436657982
 20
237.5316990685
 30
0.0
 11
142.4436657982
 21
237.5316990685
 31
0.0
  0
LINE
  5
147
  8
0
  6
CONTINUOUS
 62
     7
 10
145.6517170663
 20
240.7709121246
 30
0.0
 11
145.4436657982
 21
237.5316990685
 31
0.0
  0
LINE
  5
148
  8
0
  6
CONTINUOUS
 62
     7
 10
147.2617170663
 20
240.7709121246
 30
0.0
 11
145.6517170663
 21
240.7709121246
 31
0.0
  0
LINE
  5
149
  8
0
  6
CONTINUOUS
 62
     7
 10
147.4544039299
 20
237.7709121246
 30
0.0
 11
147.2617170663
 21
240.7709121246
 31
0.0
  0
LINE
  5
14A
  8
0
  6
CONTINUOUS
 62
     7
 10
150.4544039299
 20
237.7709121246
 30
0.0
 11
147.4544039299
 21
237.7709121246
 31
0.0
  0
LINE
  5
14B
  8
0
  6
CONTINUOUS
 62
     7
 10
150.6470907934
 20
240.7709121246
 30
0.0
 11
150.4544039299
 21
237.7709121246
 31
0.0
  0
LINE
  5
14C
  8
0
  6
CONTINUOUS
 62
     7
 10
151.4570907934
 20
240.7709121246
 30
0.0
 11
150.6470907934
 21
240.7709121246
 31
0.0
  0
LINE
  5
14D
  8
0
  6
CONTINUOUS
 62
     7
 10
151.4570907934
 20
229.7709121246
 30
0.0
 11
151.4570907934
 21
240.7709121246
 31
0.0
  0
LINE
  5
14E
  8
0
  6
CONTINUOUS
 62
     7
 10
151.4570907934
 20
229.7709121246
 30
0.0
 11
25.8563908528
 21
229.7709121246
 31
0.0
  0
DIMENSION
  5
14F
  8
0
  6
CONTINUOUS
 62
   154
  2
_D
 10
151.4570907934
 20
219.7709121246
 30
0.0
 11
90.7212686668
 21
219.7709121246
 31
0.0
 70
   160
  1
<>
  3
SLDDIMSTYLE0
 13
25.8563908528
 23
229.7709121246
 33
0.0
 14
151.4570907934
 24
229.7709121246
 34
0.0
  0
DIMENSION
  5
15A
  8
0
  6
CONTINUOUS
 62
   154
  2
_D_1
 10
23.1424812718
 20
240.7709121246
 30
0.0
 11
23.1424812718
 21
235.3810859966
 31
0.0
 70
   160
  1
<>
  3
SLDDIMSTYLE1
 13
25.8563908528
 23
229.7709121246
 33
0.0
 14
25.8563908528
 24
240.7709121246
 34
0.0
 50
90.0
  0
DIMENSION
  5
167
  8
0
  6
CONTINUOUS
 62
   154
  2
_D_2
 10
26.6663908528
 20
249.5432636853
 30
0.0
 11
34.4493841967
 21
249.5432636853
 31
0.0
 70
   160
  1
<>
  3
SLDDIMSTYLE2
 13
25.8563908528
 23
240.7709121246
 33
0.0
 14
26.6663908528
 24
240.7709121246
 34
0.0
  0
DIMENSION
  5
174
  8
0
  6
CONTINUOUS
 62
   154
  2
_D_3
 10
51.7661009346
 20
249.6775948917
 30
0.0
 11
59.4295978088
 21
249.6775948917
 31
0.0
 70
   160
  1
<>
  3
SLDDIMSTYLE1
 13
50.1561009346
 23
240.769763265
 33
0.0
 14
51.7661009346
 24
240.769763265
 34
0.0
  0
DIMENSION
  5
180
  8
0
  6
CONTINUOUS
 62
   154
  2
_D_4
 10
39.8958999367
 20
223.0446888514
 30
0.0
 11
38.319644634
 21
223.0446888514
 31
0.0
 70
   160
  1
<>
  3
SLDDIMSTYLE1
 13
36.8958999367
 23
237.5314118536
 33
0.0
 14
39.8958999367
 24
237.5314118536
 34
0.0
  0
DIMENSION
  5
18C
  8
0
  6
CONTINUOUS
 62
   154
  2
_D_5
 10
77.1045726459
 20
237.5291141345
 30
0.0
 11
78.6286667602
 21
249.6775948917
 31
0.0
 70
   162
  1
<>
  3
SLDDIMSTYLE3
 13
80.1045726459
 23
237.5291141345
 33
0.0
 14
80.3126054664
 24
240.7680399757
 34
0.0
 15
76.8965213778
 25
240.7683271906
 35
0.0
 16
78.6045726459
 26
249.6776030676
 36
0.0
  0
DIMENSION
  5
199
  8
0
  6
CONTINUOUS
 62
   154
  2
_D_6
 10
100.2089090004
 20
237.5291141345
 30
0.0
 11
98.9805600173
 21
248.0053134129
 31
0.0
 70
   162
  1
<>
  3
SLDDIMSTYLE4
 13
105.4430443571
 23
240.7686144055
 33
0.0
 14
105.2349930891
 24
237.5294013494
 34
0.0
 15
97.2089090004
 25
237.5291141345
 35
0.0
 16
96.8885247882
 26
246.4288460663
 36
0.0
  0
LINE
  5
1A6
  8
0
  6
CENTERX2
 62
   154
 10
88.6567408231
 20
227.7709121246
 30
0.0
 11
88.6567408231
 21
242.7709121246
 31
0.0
  0
LINE
  5
1A7
  8
0
  6
CONTINUOUS
 62
     7
 10
203.923133238
 20
240.7709121246
 30
0.0
 11
163.923133238
 21
240.7709121246
 31
0.0
  0
LINE
  5
1A8
  8
0
  6
CONTINUOUS
 62
     7
 10
203.923133238
 20
229.7709121246
 30
0.0
 11
203.923133238
 21
240.7709121246
 31
0.0
  0
LINE
  5
1A9
  8
0
  6
CONTINUOUS
 62
     7
 10
163.923133238
 20
229.7709121246
 30
0.0
 11
163.923133238
 21
240.7709121246
 31
0.0
  0
LINE
  5
1AA
  8
0
  6
CONTINUOUS
 62
     7
 10
203.923133238
 20
229.7709121246
 30
0.0
 11
163.923133238
 21
229.7709121246
 31
0.0
  0
DIMENSION
  5
1AB
  8
0
  6
CONTINUOUS
 62
   154
  2
_D_7
 10
163.923133238
 20
220.3556570876
 30
0.0
 11
183.8356655119
 21
220.3556570876
 31
0.0
 70
   160
  1
<>
  3
SLDDIMSTYLE0
 13
203.923133238
 23
229.7709121246
 33
0.0
 14
163.923133238
 24
229.7709121246
 34
0.0
  0
LINE
  5
1B5
  8
0
  6
CONTINUOUS
 62
     7
 10
82.0021119413
 20
115.8202686165
 30
0.0
 11
82.0021119413
 21
124.8022175473
 31
0.0
  0
LINE
  5
1B6
  8
0
  6
CONTINUOUS
 62
     7
 10
82.0021119413
 20
124.8022175473
 30
0.0
 11
82.574868434
 21
124.471572262
 31
0.0
  0
LINE
  5
1B7
  8
0
  6
CONTINUOUS
 62
     7
 10
82.574868434
 20
124.471572262
 30
0.0
 11
82.7111186219
 21
121.9432942671
 31
0.0
  0
LINE
  5
1B8
  8
0
  6
CONTINUOUS
 62
     7
 10
82.7111186219
 20
121.9432942671
 30
0.0
 11
84.8324389655
 21
120.7186820993
 31
0.0
  0
LINE
  5
1B9
  8
0
  6
CONTINUOUS
 62
     7
 10
84.8324389655
 20
120.7186820993
 30
0.0
 11
84.9686891533
 21
123.0896489758
 31
0.0
  0
LINE
  5
1BA
  8
0
  6
CONTINUOUS
 62
     7
 10
84.9686891533
 20
123.0896489758
 30
0.0
 11
86.1071310711
 21
122.4324404458
 31
0.0
  0
LINE
  5
1BB
  8
0
  6
CONTINUOUS
 62
     7
 10
86.1071310711
 20
122.4324404458
 30
0.0
 11
86.2542455335
 21
119.7025634156
 31
0.0
  0
LINE
  5
1BC
  8
0
  6
CONTINUOUS
 62
     7
 10
86.2542455335
 20
119.7025634156
 30
0.0
 11
88.3755658771
 21
118.4779512479
 31
0.0
  0
LINE
  5
1BD
  8
0
  6
CONTINUOUS
 62
     7
 10
88.3755658771
 20
118.4779512479
 30
0.0
 11
88.5226672952
 21
121.0377465428
 31
0.0
  0
LINE
  5
1BE
  8
0
  6
CONTINUOUS
 62
     7
 10
88.5226672952
 20
121.0377465428
 30
0.0
 11
89.6611092129
 21
120.3805380127
 31
0.0
  0
LINE
  5
1BF
  8
0
  6
CONTINUOUS
 62
     7
 10
89.6611092129
 20
120.3805380127
 30
0.0
 11
89.8082236754
 21
117.6506609826
 31
0.0
  0
LINE
  5
1C0
  8
0
  6
CONTINUOUS
 62
     7
 10
89.8082236754
 20
117.6506609826
 30
0.0
 11
91.929544019
 21
116.4260488149
 31
0.0
  0
LINE
  5
1C1
  8
0
  6
CONTINUOUS
 62
     7
 10
91.929544019
 20
116.4260488149
 30
0.0
 11
92.0766454371
 21
118.9858441097
 31
0.0
  0
LINE
  5
1C2
  8
0
  6
CONTINUOUS
 62
     7
 10
92.0766454371
 20
118.9858441097
 30
0.0
 11
93.2150873548
 21
118.3286355797
 31
0.0
  0
LINE
  5
1C3
  8
0
  6
CONTINUOUS
 62
     7
 10
93.2150873548
 20
118.3286355797
 30
0.0
 11
93.3622018173
 21
115.5987585496
 31
0.0
  0
LINE
  5
1C4
  8
0
  6
CONTINUOUS
 62
     7
 10
93.3622018173
 20
115.5987585496
 30
0.0
 11
95.4835221609
 21
114.3741463819
 31
0.0
  0
LINE
  5
1C5
  8
0
  6
CONTINUOUS
 62
     7
 10
95.4835221609
 20
114.3741463819
 30
0.0
 11
95.630623579
 21
116.9339416767
 31
0.0
  0
LINE
  5
1C6
  8
0
  6
CONTINUOUS
 62
     7
 10
95.630623579
 20
116.9339416767
 30
0.0
 11
96.7690654967
 21
116.2767331467
 31
0.0
  0
LINE
  5
1C7
  8
0
  6
CONTINUOUS
 62
     7
 10
96.7690654967
 20
116.2767331467
 30
0.0
 11
96.9161799592
 21
113.5468561166
 31
0.0
  0
LINE
  5
1C8
  8
0
  6
CONTINUOUS
 62
     7
 10
96.9161799592
 20
113.5468561166
 30
0.0
 11
99.0375003028
 21
112.3222439488
 31
0.0
  0
LINE
  5
1C9
  8
0
  6
CONTINUOUS
 62
     7
 10
99.0375003028
 20
112.3222439488
 30
0.0
 11
99.1846017209
 21
114.8820392437
 31
0.0
  0
LINE
  5
1CA
  8
0
  6
CONTINUOUS
 62
     7
 10
99.1846017209
 20
114.8820392437
 30
0.0
 11
100.3230436386
 21
114.2248307137
 31
0.0
  0
LINE
  5
1CB
  8
0
  6
CONTINUOUS
 62
     7
 10
100.3230436386
 20
114.2248307137
 30
0.0
 11
100.4701581011
 21
111.4949536836
 31
0.0
  0
LINE
  5
1CC
  8
0
  6
CONTINUOUS
 62
     7
 10
100.4701581011
 20
111.4949536836
 30
0.0
 11
102.5914784447
 21
110.2703415158
 31
0.0
  0
LINE
  5
1CD
  8
0
  6
CONTINUOUS
 62
     7
 10
102.5914784447
 20
110.2703415158
 30
0.0
 11
102.7385798628
 21
112.8301368107
 31
0.0
  0
LINE
  5
1CE
  8
0
  6
CONTINUOUS
 62
     7
 10
102.7385798628
 20
112.8301368107
 30
0.0
 11
103.8770217805
 21
112.1729282807
 31
0.0
  0
LINE
  5
1CF
  8
0
  6
CONTINUOUS
 62
     7
 10
103.8770217805
 20
112.1729282807
 30
0.0
 11
104.024136243
 21
109.4430512506
 31
0.0
  0
LINE
  5
1D0
  8
0
  6
CONTINUOUS
 62
     7
 10
104.024136243
 20
109.4430512506
 30
0.0
 11
106.1454565866
 21
108.2184390828
 31
0.0
  0
LINE
  5
1D1
  8
0
  6
CONTINUOUS
 62
     7
 10
106.1454565866
 20
108.2184390828
 30
0.0
 11
106.2925580047
 21
110.7782343777
 31
0.0
  0
LINE
  5
1D2
  8
0
  6
CONTINUOUS
 62
     7
 10
106.2925580047
 20
110.7782343777
 30
0.0
 11
107.4309999224
 21
110.1210258477
 31
0.0
  0
LINE
  5
1D3
  8
0
  6
CONTINUOUS
 62
     7
 10
107.4309999224
 20
110.1210258477
 30
0.0
 11
107.5781143849
 21
107.3911488175
 31
0.0
  0
LINE
  5
1D4
  8
0
  6
CONTINUOUS
 62
     7
 10
107.5781143849
 20
107.3911488175
 30
0.0
 11
109.6994347285
 21
106.1665366498
 31
0.0
  0
LINE
  5
1D5
  8
0
  6
CONTINUOUS
 62
     7
 10
109.6994347285
 20
106.1665366498
 30
0.0
 11
109.8465361466
 21
108.7263319447
 31
0.0
  0
LINE
  5
1D6
  8
0
  6
CONTINUOUS
 62
     7
 10
109.8465361466
 20
108.7263319447
 30
0.0
 11
110.9849780643
 21
108.0691234147
 31
0.0
  0
LINE
  5
1D7
  8
0
  6
CONTINUOUS
 62
     7
 10
110.9849780643
 20
108.0691234147
 30
0.0
 11
111.1320925268
 21
105.3392463845
 31
0.0
  0
LINE
  5
1D8
  8
0
  6
CONTINUOUS
 62
     7
 10
111.1320925268
 20
105.3392463845
 30
0.0
 11
113.2534128704
 21
104.1146342168
 31
0.0
  0
LINE
  5
1D9
  8
0
  6
CONTINUOUS
 62
     7
 10
113.2534128704
 20
104.1146342168
 30
0.0
 11
113.4005142885
 21
106.6744295117
 31
0.0
  0
LINE
  5
1DA
  8
0
  6
CONTINUOUS
 62
     7
 10
113.4005142885
 20
106.6744295117
 30
0.0
 11
114.5389562062
 21
106.0172209817
 31
0.0
  0
LINE
  5
1DB
  8
0
  6
CONTINUOUS
 62
     7
 10
114.5389562062
 20
106.0172209817
 30
0.0
 11
114.6860706687
 21
103.2873439515
 31
0.0
  0
LINE
  5
1DC
  8
0
  6
CONTINUOUS
 62
     7
 10
114.6860706687
 20
103.2873439515
 30
0.0
 11
116.8073910122
 21
102.0627317838
 31
0.0
  0
LINE
  5
1DD
  8
0
  6
CONTINUOUS
 62
     7
 10
116.8073910122
 20
102.0627317838
 30
0.0
 11
116.9544924304
 21
104.6225270787
 31
0.0
  0
LINE
  5
1DE
  8
0
  6
CONTINUOUS
 62
     7
 10
116.9544924304
 20
104.6225270787
 30
0.0
 11
118.0929343481
 21
103.9653185486
 31
0.0
  0
LINE
  5
1DF
  8
0
  6
CONTINUOUS
 62
     7
 10
118.0929343481
 20
103.9653185486
 30
0.0
 11
118.2400488106
 21
101.2354415185
 31
0.0
  0
LINE
  5
1E0
  8
0
  6
CONTINUOUS
 62
     7
 10
118.2400488106
 20
101.2354415185
 30
0.0
 11
120.3613691541
 21
100.0108293508
 31
0.0
  0
LINE
  5
1E1
  8
0
  6
CONTINUOUS
 62
     7
 10
120.3613691541
 20
100.0108293508
 30
0.0
 11
120.5084705723
 21
102.5706246457
 31
0.0
  0
LINE
  5
1E2
  8
0
  6
CONTINUOUS
 62
     7
 10
120.5084705723
 20
102.5706246457
 30
0.0
 11
121.64691249
 21
101.9134161156
 31
0.0
  0
LINE
  5
1E3
  8
0
  6
CONTINUOUS
 62
     7
 10
121.64691249
 20
101.9134161156
 30
0.0
 11
121.7940269525
 21
99.1835390855
 31
0.0
  0
LINE
  5
1E4
  8
0
  6
CONTINUOUS
 62
     7
 10
121.7940269525
 20
99.1835390855
 30
0.0
 11
123.915347296
 21
97.9589269178
 31
0.0
  0
LINE
  5
1E5
  8
0
  6
CONTINUOUS
 62
     7
 10
123.915347296
 20
97.9589269178
 30
0.0
 11
124.0624487142
 21
100.5187222126
 31
0.0
  0
LINE
  5
1E6
  8
0
  6
CONTINUOUS
 62
     7
 10
124.0624487142
 20
100.5187222126
 30
0.0
 11
125.2008906319
 21
99.8615136826
 31
0.0
  0
LINE
  5
1E7
  8
0
  6
CONTINUOUS
 62
     7
 10
125.2008906319
 20
99.8615136826
 30
0.0
 11
125.3480050944
 21
97.1316366525
 31
0.0
  0
LINE
  5
1E8
  8
0
  6
CONTINUOUS
 62
     7
 10
125.3480050944
 20
97.1316366525
 30
0.0
 11
127.4693254379
 21
95.9070244848
 31
0.0
  0
LINE
  5
1E9
  8
0
  6
CONTINUOUS
 62
     7
 10
127.6164399004
 20
98.467046772
 30
0.0
 11
127.4693254379
 21
95.9070244848
 31
0.0
  0
LINE
  5
1EA
  8
0
  6
CONTINUOUS
 62
     7
 10
128.7548818181
 20
97.8098382419
 30
0.0
 11
127.6164399004
 21
98.467046772
 31
0.0
  0
LINE
  5
1EB
  8
0
  6
CONTINUOUS
 62
     7
 10
128.9019832363
 20
95.0802032648
 30
0.0
 11
128.7548818181
 21
97.8098382419
 31
0.0
  0
LINE
  5
1EC
  8
0
  6
CONTINUOUS
 62
     7
 10
131.0233035798
 20
93.8555910971
 30
0.0
 11
128.9019832363
 21
95.0802032648
 31
0.0
  0
LINE
  5
1ED
  8
0
  6
CONTINUOUS
 62
     7
 10
131.1704180423
 20
96.4156133843
 30
0.0
 11
131.0233035798
 21
93.8555910971
 31
0.0
  0
LINE
  5
1EE
  8
0
  6
CONTINUOUS
 62
     7
 10
132.30885996
 20
95.7584048543
 30
0.0
 11
131.1704180423
 21
96.4156133843
 31
0.0
  0
LINE
  5
1EF
  8
0
  6
CONTINUOUS
 62
     7
 10
132.4559613782
 20
93.0287698772
 30
0.0
 11
132.30885996
 21
95.7584048543
 31
0.0
  0
LINE
  5
1F0
  8
0
  6
CONTINUOUS
 62
     7
 10
134.5772817217
 20
91.8041577094
 30
0.0
 11
132.4559613782
 21
93.0287698772
 31
0.0
  0
LINE
  5
1F1
  8
0
  6
CONTINUOUS
 62
     7
 10
134.7243961842
 20
94.3641799966
 30
0.0
 11
134.5772817217
 21
91.8041577094
 31
0.0
  0
LINE
  5
1F2
  8
0
  6
CONTINUOUS
 62
     7
 10
135.8628381019
 20
93.7069714666
 30
0.0
 11
134.7243961842
 21
94.3641799966
 31
0.0
  0
LINE
  5
1F3
  8
0
  6
CONTINUOUS
 62
     7
 10
136.00993952
 20
90.9773364895
 30
0.0
 11
135.8628381019
 21
93.7069714666
 31
0.0
  0
LINE
  5
1F4
  8
0
  6
CONTINUOUS
 62
     7
 10
138.1312598636
 20
89.7527243218
 30
0.0
 11
136.00993952
 21
90.9773364895
 31
0.0
  0
LINE
  5
1F5
  8
0
  6
CONTINUOUS
 62
     7
 10
138.2783743261
 20
92.312746609
 30
0.0
 11
138.1312598636
 21
89.7527243218
 31
0.0
  0
LINE
  5
1F6
  8
0
  6
CONTINUOUS
 62
     7
 10
139.4168162438
 20
91.655538079
 30
0.0
 11
138.2783743261
 21
92.312746609
 31
0.0
  0
LINE
  5
1F7
  8
0
  6
CONTINUOUS
 62
     7
 10
139.5639176619
 20
88.9259031018
 30
0.0
 11
139.4168162438
 21
91.655538079
 31
0.0
  0
LINE
  5
1F8
  8
0
  6
CONTINUOUS
 62
     7
 10
141.6852380055
 20
87.7012909341
 30
0.0
 11
139.5639176619
 21
88.9259031018
 31
0.0
  0
LINE
  5
1F9
  8
0
  6
CONTINUOUS
 62
     7
 10
141.832352468
 20
90.2613132213
 30
0.0
 11
141.6852380055
 21
87.7012909341
 31
0.0
  0
LINE
  5
1FA
  8
0
  6
CONTINUOUS
 62
     7
 10
142.9707943857
 20
89.6041046913
 30
0.0
 11
141.832352468
 21
90.2613132213
 31
0.0
  0
LINE
  5
1FB
  8
0
  6
CONTINUOUS
 62
     7
 10
143.1178958038
 20
86.8744697142
 30
0.0
 11
142.9707943857
 21
89.6041046913
 31
0.0
  0
LINE
  5
1FC
  8
0
  6
CONTINUOUS
 62
     7
 10
145.2392161474
 20
85.6498575465
 30
0.0
 11
143.1178958038
 21
86.8744697142
 31
0.0
  0
LINE
  5
1FD
  8
0
  6
CONTINUOUS
 62
     7
 10
145.3863306099
 20
88.2098798337
 30
0.0
 11
145.2392161474
 21
85.6498575465
 31
0.0
  0
LINE
  5
1FE
  8
0
  6
CONTINUOUS
 62
     7
 10
146.5247725276
 20
87.5526713036
 30
0.0
 11
145.3863306099
 21
88.2098798337
 31
0.0
  0
LINE
  5
1FF
  8
0
  6
CONTINUOUS
 62
     7
 10
146.6718739457
 20
84.8230363265
 30
0.0
 11
146.5247725276
 21
87.5526713036
 31
0.0
  0
LINE
  5
200
  8
0
  6
CONTINUOUS
 62
     7
 10
148.7931942893
 20
83.5984241588
 30
0.0
 11
146.6718739457
 21
84.8230363265
 31
0.0
  0
LINE
  5
201
  8
0
  6
CONTINUOUS
 62
     7
 10
148.9403087518
 20
86.158446446
 30
0.0
 11
148.7931942893
 21
83.5984241588
 31
0.0
  0
LINE
  5
202
  8
0
  6
CONTINUOUS
 62
     7
 10
150.0787506695
 20
85.501237916
 30
0.0
 11
148.9403087518
 21
86.158446446
 31
0.0
  0
LINE
  5
203
  8
0
  6
CONTINUOUS
 62
     7
 10
150.2258520876
 20
82.7716029389
 30
0.0
 11
150.0787506695
 21
85.501237916
 31
0.0
  0
LINE
  5
204
  8
0
  6
CONTINUOUS
 62
     7
 10
152.3471724312
 20
81.5469907711
 30
0.0
 11
150.2258520876
 21
82.7716029389
 31
0.0
  0
LINE
  5
205
  8
0
  6
CONTINUOUS
 62
     7
 10
152.4942868937
 20
84.1070130583
 30
0.0
 11
152.3471724312
 21
81.5469907711
 31
0.0
  0
LINE
  5
206
  8
0
  6
CONTINUOUS
 62
     7
 10
153.6327288114
 20
83.4498045283
 30
0.0
 11
152.4942868937
 21
84.1070130583
 31
0.0
  0
LINE
  5
207
  8
0
  6
CONTINUOUS
 62
     7
 10
153.7798302295
 20
80.7201695512
 30
0.0
 11
153.6327288114
 21
83.4498045283
 31
0.0
  0
LINE
  5
208
  8
0
  6
CONTINUOUS
 62
     7
 10
155.9011505731
 20
79.4955573835
 30
0.0
 11
153.7798302295
 21
80.7201695512
 31
0.0
  0
LINE
  5
209
  8
0
  6
CONTINUOUS
 62
     7
 10
156.0482650356
 20
82.0555796707
 30
0.0
 11
155.9011505731
 21
79.4955573835
 31
0.0
  0
LINE
  5
20A
  8
0
  6
CONTINUOUS
 62
     7
 10
157.1867069533
 20
81.3983711407
 30
0.0
 11
156.0482650356
 21
82.0555796707
 31
0.0
  0
LINE
  5
20B
  8
0
  6
CONTINUOUS
 62
     7
 10
157.3338083714
 20
78.6687361636
 30
0.0
 11
157.1867069533
 21
81.3983711407
 31
0.0
  0
LINE
  5
20C
  8
0
  6
CONTINUOUS
 62
     7
 10
159.455128715
 20
77.4441239958
 30
0.0
 11
157.3338083714
 21
78.6687361636
 31
0.0
  0
LINE
  5
20D
  8
0
  6
CONTINUOUS
 62
     7
 10
159.6022431775
 20
80.004146283
 30
0.0
 11
159.455128715
 21
77.4441239958
 31
0.0
  0
LINE
  5
20E
  8
0
  6
CONTINUOUS
 62
     7
 10
160.7406850952
 20
79.346937753
 30
0.0
 11
159.6022431775
 21
80.004146283
 31
0.0
  0
LINE
  5
20F
  8
0
  6
CONTINUOUS
 62
     7
 10
160.8877865133
 20
76.6173027759
 30
0.0
 11
160.7406850952
 21
79.346937753
 31
0.0
  0
LINE
  5
210
  8
0
  6
CONTINUOUS
 62
     7
 10
163.0091068569
 20
75.3926906082
 30
0.0
 11
160.8877865133
 21
76.6173027759
 31
0.0
  0
LINE
  5
211
  8
0
  6
CONTINUOUS
 62
     7
 10
163.1562213193
 20
77.9527128954
 30
0.0
 11
163.0091068569
 21
75.3926906082
 31
0.0
  0
LINE
  5
212
  8
0
  6
CONTINUOUS
 62
     7
 10
164.2946632371
 20
77.2955043654
 30
0.0
 11
163.1562213193
 21
77.9527128954
 31
0.0
  0
LINE
  5
213
  8
0
  6
CONTINUOUS
 62
     7
 10
164.4417646552
 20
74.5658693882
 30
0.0
 11
164.2946632371
 21
77.2955043654
 31
0.0
  0
LINE
  5
214
  8
0
  6
CONTINUOUS
 62
     7
 10
166.5630849987
 20
73.3412572205
 30
0.0
 11
164.4417646552
 21
74.5658693882
 31
0.0
  0
LINE
  5
215
  8
0
  6
CONTINUOUS
 62
     7
 10
166.7101994612
 20
75.9012795077
 30
0.0
 11
166.5630849987
 21
73.3412572205
 31
0.0
  0
LINE
  5
216
  8
0
  6
CONTINUOUS
 62
     7
 10
167.848641379
 20
75.2440709777
 30
0.0
 11
166.7101994612
 21
75.9012795077
 31
0.0
  0
LINE
  5
217
  8
0
  6
CONTINUOUS
 62
     7
 10
167.9848915668
 20
72.7157929828
 30
0.0
 11
167.848641379
 21
75.2440709777
 31
0.0
  0
LINE
  5
218
  8
0
  6
CONTINUOUS
 62
     7
 10
170.1062119104
 20
71.4911808151
 30
0.0
 11
167.9848915668
 21
72.7157929828
 31
0.0
  0
LINE
  5
219
  8
0
  6
CONTINUOUS
 62
     7
 10
170.2424620983
 20
73.8621476915
 30
0.0
 11
170.1062119104
 21
71.4911808151
 31
0.0
  0
LINE
  5
21A
  8
0
  6
CONTINUOUS
 62
     7
 10
170.815218591
 20
73.5315024062
 30
0.0
 11
170.2424620983
 21
73.8621476915
 31
0.0
  0
LINE
  5
21B
  8
0
  6
CONTINUOUS
 62
     7
 10
170.815218591
 20
64.5495534755
 30
0.0
 11
170.815218591
 21
73.5315024062
 31
0.0
  0
LINE
  5
21C
  8
0
  6
CONTINUOUS
 62
     7
 10
170.815218591
 20
64.5495534755
 30
0.0
 11
82.0021119413
 21
115.8202686165
 31
0.0
  0
LINE
  5
21D
  8
0
  6
CONTINUOUS
 62
     7
 10
170.815218591
 20
64.5495534755
 30
0.0
 11
199.0994898385
 21
80.8777157119
 31
0.0
  0
LINE
  5
21E
  8
0
  6
CONTINUOUS
 62
     7
 10
170.815218591
 20
73.5315024062
 30
0.0
 11
199.0994898385
 21
89.8596646427
 31
0.0
  0
LINE
  5
21F
  8
0
  6
CONTINUOUS
 62
     7
 10
199.0994898385
 20
80.8777157119
 30
0.0
 11
199.0994898385
 21
89.8596646427
 31
0.0
  0
LINE
  5
220
  8
0
  6
CONTINUOUS
 62
     7
 10
170.2424620983
 20
73.8621476915
 30
0.0
 11
198.5267333457
 21
90.1903099279
 31
0.0
  0
LINE
  5
221
  8
0
  6
CONTINUOUS
 62
     7
 10
199.0994898385
 20
89.8596646427
 30
0.0
 11
198.5267333457
 21
90.1903099279
 31
0.0
  0
LINE
  5
222
  8
0
  6
CONTINUOUS
 62
     7
 10
167.9848915668
 20
72.7157929828
 30
0.0
 11
196.2691628143
 21
89.0439552193
 31
0.0
  0
LINE
  5
223
  8
0
  6
CONTINUOUS
 62
     7
 10
196.4050681999
 20
88.9654987101
 30
0.0
 11
196.2691628143
 21
89.0439552193
 31
0.0
  0
LINE
  5
224
  8
0
  6
CONTINUOUS
 62
     7
 10
167.848641379
 20
75.2440709777
 30
0.0
 11
196.1329126264
 21
91.5722332141
 31
0.0
  0
LINE
  5
225
  8
0
  6
CONTINUOUS
 62
     7
 10
196.2691628143
 20
89.0439552193
 30
0.0
 11
196.1329126264
 21
91.5722332141
 31
0.0
  0
LINE
  5
226
  8
0
  6
CONTINUOUS
 62
     7
 10
166.7101994612
 20
75.9012795077
 30
0.0
 11
194.9944707087
 21
92.2294417442
 31
0.0
  0
LINE
  5
227
  8
0
  6
CONTINUOUS
 62
     7
 10
196.1329126264
 20
91.5722332141
 30
0.0
 11
194.9944707087
 21
92.2294417442
 31
0.0
  0
LINE
  5
228
  8
0
  6
CONTINUOUS
 62
     7
 10
164.4417646552
 20
74.5658693882
 30
0.0
 11
166.7086617681
 21
75.8745212361
 31
0.0
  0
LINE
  5
229
  8
0
  6
CONTINUOUS
 62
     7
 10
164.2946632371
 20
77.2955043654
 30
0.0
 11
192.5789344845
 21
93.6236666018
 31
0.0
  0
LINE
  5
22A
  8
0
  6
CONTINUOUS
 62
     7
 10
192.7246837886
 20
90.9191216462
 30
0.0
 11
192.5789344845
 21
93.6236666018
 31
0.0
  0
LINE
  5
22B
  8
0
  6
CONTINUOUS
 62
     7
 10
163.1562213193
 20
77.9527128954
 30
0.0
 11
191.4404925668
 21
94.2808751318
 31
0.0
  0
LINE
  5
22C
  8
0
  6
CONTINUOUS
 62
     7
 10
192.5789344845
 20
93.6236666018
 30
0.0
 11
191.4404925668
 21
94.2808751318
 31
0.0
  0
LINE
  5
22D
  8
0
  6
CONTINUOUS
 62
     7
 10
160.8877865133
 20
76.6173027759
 30
0.0
 11
163.1546836262
 21
77.9259546237
 31
0.0
  0
LINE
  5
22E
  8
0
  6
CONTINUOUS
 62
     7
 10
160.7406850952
 20
79.346937753
 30
0.0
 11
189.0249563426
 21
95.6750999895
 31
0.0
  0
LINE
  5
22F
  8
0
  6
CONTINUOUS
 62
     7
 10
189.1707056467
 20
92.9705550338
 30
0.0
 11
189.0249563426
 21
95.6750999895
 31
0.0
  0
LINE
  5
230
  8
0
  6
CONTINUOUS
 62
     7
 10
159.6022431775
 20
80.004146283
 30
0.0
 11
187.8865144249
 21
96.3323085195
 31
0.0
  0
LINE
  5
231
  8
0
  6
CONTINUOUS
 62
     7
 10
189.0249563426
 20
95.6750999895
 30
0.0
 11
187.8865144249
 21
96.3323085195
 31
0.0
  0
LINE
  5
232
  8
0
  6
CONTINUOUS
 62
     7
 10
157.3338083714
 20
78.6687361636
 30
0.0
 11
159.6007054843
 21
79.9773880114
 31
0.0
  0
LINE
  5
233
  8
0
  6
CONTINUOUS
 62
     7
 10
157.1867069533
 20
81.3983711407
 30
0.0
 11
185.4709782007
 21
97.7265333771
 31
0.0
  0
LINE
  5
234
  8
0
  6
CONTINUOUS
 62
     7
 10
185.6167275048
 20
95.0219884215
 30
0.0
 11
185.4709782007
 21
97.7265333771
 31
0.0
  0
LINE
  5
235
  8
0
  6
CONTINUOUS
 62
     7
 10
156.0482650356
 20
82.0555796707
 30
0.0
 11
184.332536283
 21
98.3837419071
 31
0.0
  0
LINE
  5
236
  8
0
  6
CONTINUOUS
 62
     7
 10
185.4709782007
 20
97.7265333771
 30
0.0
 11
184.332536283
 21
98.3837419071
 31
0.0
  0
LINE
  5
237
  8
0
  6
CONTINUOUS
 62
     7
 10
153.7798302295
 20
80.7201695512
 30
0.0
 11
156.0467273424
 21
82.0288213991
 31
0.0
  0
LINE
  5
238
  8
0
  6
CONTINUOUS
 62
     7
 10
153.6327288114
 20
83.4498045283
 30
0.0
 11
181.9170000588
 21
99.7779667648
 31
0.0
  0
LINE
  5
239
  8
0
  6
CONTINUOUS
 62
     7
 10
182.0627493629
 20
97.0734218091
 30
0.0
 11
181.9170000588
 21
99.7779667648
 31
0.0
  0
LINE
  5
23A
  8
0
  6
CONTINUOUS
 62
     7
 10
152.4942868937
 20
84.1070130583
 30
0.0
 11
180.7785581411
 21
100.4351752948
 31
0.0
  0
LINE
  5
23B
  8
0
  6
CONTINUOUS
 62
     7
 10
181.9170000588
 20
99.7779667648
 30
0.0
 11
180.7785581411
 21
100.4351752948
 31
0.0
  0
LINE
  5
23C
  8
0
  6
CONTINUOUS
 62
     7
 10
150.2258520876
 20
82.7716029389
 30
0.0
 11
152.4927492005
 21
84.0802547867
 31
0.0
  0
LINE
  5
23D
  8
0
  6
CONTINUOUS
 62
     7
 10
150.0787506695
 20
85.501237916
 30
0.0
 11
178.3630219169
 21
101.8294001524
 31
0.0
  0
LINE
  5
23E
  8
0
  6
CONTINUOUS
 62
     7
 10
178.5087712211
 20
99.1248551968
 30
0.0
 11
178.3630219169
 21
101.8294001524
 31
0.0
  0
LINE
  5
23F
  8
0
  6
CONTINUOUS
 62
     7
 10
148.9403087518
 20
86.158446446
 30
0.0
 11
177.2245799992
 21
102.4866086825
 31
0.0
  0
LINE
  5
240
  8
0
  6
CONTINUOUS
 62
     7
 10
178.3630219169
 20
101.8294001524
 30
0.0
 11
177.2245799992
 21
102.4866086825
 31
0.0
  0
LINE
  5
241
  8
0
  6
CONTINUOUS
 62
     7
 10
146.6718739457
 20
84.8230363265
 30
0.0
 11
148.9387710586
 21
86.1316881744
 31
0.0
  0
LINE
  5
242
  8
0
  6
CONTINUOUS
 62
     7
 10
146.5247725276
 20
87.5526713036
 30
0.0
 11
174.8090437751
 21
103.8808335401
 31
0.0
  0
LINE
  5
243
  8
0
  6
CONTINUOUS
 62
     7
 10
174.9547930792
 20
101.1762885844
 30
0.0
 11
174.8090437751
 21
103.8808335401
 31
0.0
  0
LINE
  5
244
  8
0
  6
CONTINUOUS
 62
     7
 10
145.3863306099
 20
88.2098798337
 30
0.0
 11
173.6706018573
 21
104.5380420701
 31
0.0
  0
LINE
  5
245
  8
0
  6
CONTINUOUS
 62
     7
 10
174.8090437751
 20
103.8808335401
 30
0.0
 11
173.6706018573
 21
104.5380420701
 31
0.0
  0
LINE
  5
246
  8
0
  6
CONTINUOUS
 62
     7
 10
143.1178958038
 20
86.8744697142
 30
0.0
 11
145.3847929167
 21
88.183121562
 31
0.0
  0
LINE
  5
247
  8
0
  6
CONTINUOUS
 62
     7
 10
142.9707943857
 20
89.6041046913
 30
0.0
 11
171.2550656332
 21
105.9322669278
 31
0.0
  0
LINE
  5
248
  8
0
  6
CONTINUOUS
 62
     7
 10
171.4008149373
 20
103.2277219721
 30
0.0
 11
171.2550656332
 21
105.9322669278
 31
0.0
  0
LINE
  5
249
  8
0
  6
CONTINUOUS
 62
     7
 10
141.832352468
 20
90.2613132213
 30
0.0
 11
170.1166237155
 21
106.5894754578
 31
0.0
  0
LINE
  5
24A
  8
0
  6
CONTINUOUS
 62
     7
 10
171.2550656332
 20
105.9322669278
 30
0.0
 11
170.1166237155
 21
106.5894754578
 31
0.0
  0
LINE
  5
24B
  8
0
  6
CONTINUOUS
 62
     7
 10
139.5639176619
 20
88.9259031018
 30
0.0
 11
141.8308147748
 21
90.2345549497
 31
0.0
  0
LINE
  5
24C
  8
0
  6
CONTINUOUS
 62
     7
 10
139.4168162438
 20
91.655538079
 30
0.0
 11
167.7010874913
 21
107.9837003154
 31
0.0
  0
LINE
  5
24D
  8
0
  6
CONTINUOUS
 62
     7
 10
167.8468367954
 20
105.2791553598
 30
0.0
 11
167.7010874913
 21
107.9837003154
 31
0.0
  0
LINE
  5
24E
  8
0
  6
CONTINUOUS
 62
     7
 10
138.2783743261
 20
92.312746609
 30
0.0
 11
166.5626455736
 21
108.6409088454
 31
0.0
  0
LINE
  5
24F
  8
0
  6
CONTINUOUS
 62
     7
 10
167.7010874913
 20
107.9837003154
 30
0.0
 11
166.5626455736
 21
108.6409088454
 31
0.0
  0
LINE
  5
250
  8
0
  6
CONTINUOUS
 62
     7
 10
136.00993952
 20
90.9773364895
 30
0.0
 11
138.2768366329
 21
92.2859883373
 31
0.0
  0
LINE
  5
251
  8
0
  6
CONTINUOUS
 62
     7
 10
135.8628381019
 20
93.7069714666
 30
0.0
 11
164.1471093494
 21
110.0351337031
 31
0.0
  0
LINE
  5
252
  8
0
  6
CONTINUOUS
 62
     7
 10
164.2928586535
 20
107.3305887474
 30
0.0
 11
164.1471093494
 21
110.0351337031
 31
0.0
  0
LINE
  5
253
  8
0
  6
CONTINUOUS
 62
     7
 10
134.7243961842
 20
94.3641799966
 30
0.0
 11
163.0086674317
 21
110.6923422331
 31
0.0
  0
LINE
  5
254
  8
0
  6
CONTINUOUS
 62
     7
 10
164.1471093494
 20
110.0351337031
 30
0.0
 11
163.0086674317
 21
110.6923422331
 31
0.0
  0
LINE
  5
255
  8
0
  6
CONTINUOUS
 62
     7
 10
132.4559613782
 20
93.0287698772
 30
0.0
 11
134.722858491
 21
94.337421725
 31
0.0
  0
LINE
  5
256
  8
0
  6
CONTINUOUS
 62
     7
 10
132.30885996
 20
95.7584048543
 30
0.0
 11
160.5931312075
 21
112.0865670907
 31
0.0
  0
LINE
  5
257
  8
0
  6
CONTINUOUS
 62
     7
 10
160.7388805116
 20
109.3820221351
 30
0.0
 11
160.5931312075
 21
112.0865670907
 31
0.0
  0
LINE
  5
258
  8
0
  6
CONTINUOUS
 62
     7
 10
131.1704180423
 20
96.4156133843
 30
0.0
 11
159.4546892898
 21
112.7437756208
 31
0.0
  0
LINE
  5
259
  8
0
  6
CONTINUOUS
 62
     7
 10
160.5931312075
 20
112.0865670907
 30
0.0
 11
159.4546892898
 21
112.7437756208
 31
0.0
  0
LINE
  5
25A
  8
0
  6
CONTINUOUS
 62
     7
 10
128.9019832363
 20
95.0802032648
 30
0.0
 11
131.1688803492
 21
96.3888551127
 31
0.0
  0
LINE
  5
25B
  8
0
  6
CONTINUOUS
 62
     7
 10
128.7548818181
 20
97.8098382419
 30
0.0
 11
157.0391530656
 21
114.1380004784
 31
0.0
  0
LINE
  5
25C
  8
0
  6
CONTINUOUS
 62
     7
 10
157.1849023697
 20
111.4334555227
 30
0.0
 11
157.0391530656
 21
114.1380004784
 31
0.0
  0
LINE
  5
25D
  8
0
  6
CONTINUOUS
 62
     7
 10
127.6164399004
 20
98.467046772
 30
0.0
 11
155.9007111479
 21
114.7952090084
 31
0.0
  0
LINE
  5
25E
  8
0
  6
CONTINUOUS
 62
     7
 10
157.0391530656
 20
114.1380004784
 30
0.0
 11
155.9007111479
 21
114.7952090084
 31
0.0
  0
LINE
  5
25F
  8
0
  6
CONTINUOUS
 62
     7
 10
125.3480050944
 20
97.1316366525
 30
0.0
 11
127.6149022073
 21
98.4402885003
 31
0.0
  0
LINE
  5
260
  8
0
  6
CONTINUOUS
 62
     7
 10
125.2008906319
 20
99.8615136826
 30
0.0
 11
153.4851618793
 21
116.1896759191
 31
0.0
  0
LINE
  5
261
  8
0
  6
CONTINUOUS
 62
     7
 10
153.4851618793
 20
116.1896759191
 30
0.0
 11
153.6309242278
 21
113.4848889104
 31
0.0
  0
LINE
  5
262
  8
0
  6
CONTINUOUS
 62
     7
 10
124.0624487142
 20
100.5187222126
 30
0.0
 11
152.3467199616
 21
116.8468844491
 31
0.0
  0
LINE
  5
263
  8
0
  6
CONTINUOUS
 62
     7
 10
152.3467199616
 20
116.8468844491
 30
0.0
 11
153.4851618793
 21
116.1896759191
 31
0.0
  0
LINE
  5
264
  8
0
  6
CONTINUOUS
 62
     7
 10
121.7940269525
 20
99.1835390855
 30
0.0
 11
124.0609240654
 21
100.4921909333
 31
0.0
  0
LINE
  5
265
  8
0
  6
CONTINUOUS
 62
     7
 10
121.64691249
 20
101.9134161156
 30
0.0
 11
149.9311837374
 21
118.2415783521
 31
0.0
  0
LINE
  5
266
  8
0
  6
CONTINUOUS
 62
     7
 10
149.9311837374
 20
118.2415783521
 30
0.0
 11
150.076957556
 21
115.536578503
 31
0.0
  0
LINE
  5
267
  8
0
  6
CONTINUOUS
 62
     7
 10
120.5084705723
 20
102.5706246457
 30
0.0
 11
148.7927418197
 21
118.8987868821
 31
0.0
  0
LINE
  5
268
  8
0
  6
CONTINUOUS
 62
     7
 10
148.7927418197
 20
118.8987868821
 30
0.0
 11
149.9311837374
 21
118.2415783521
 31
0.0
  0
LINE
  5
269
  8
0
  6
CONTINUOUS
 62
     7
 10
118.2400488106
 20
101.2354415185
 30
0.0
 11
120.5069459235
 21
102.5440933663
 31
0.0
  0
LINE
  5
26A
  8
0
  6
CONTINUOUS
 62
     7
 10
118.0929343481
 20
103.9653185486
 30
0.0
 11
146.3772055956
 21
120.2934807851
 31
0.0
  0
LINE
  5
26B
  8
0
  6
CONTINUOUS
 62
     7
 10
146.3772055956
 20
120.2934807851
 30
0.0
 11
146.5229794141
 21
117.588480936
 31
0.0
  0
LINE
  5
26C
  8
0
  6
CONTINUOUS
 62
     7
 10
116.9544924304
 20
104.6225270787
 30
0.0
 11
145.2387636778
 21
120.9506893151
 31
0.0
  0
LINE
  5
26D
  8
0
  6
CONTINUOUS
 62
     7
 10
145.2387636778
 20
120.9506893151
 30
0.0
 11
146.3772055956
 21
120.2934807851
 31
0.0
  0
LINE
  5
26E
  8
0
  6
CONTINUOUS
 62
     7
 10
114.6860706687
 20
103.2873439515
 30
0.0
 11
116.9529677816
 21
104.5959957994
 31
0.0
  0
LINE
  5
26F
  8
0
  6
CONTINUOUS
 62
     7
 10
114.5389562062
 20
106.0172209817
 30
0.0
 11
142.8232274537
 21
122.3453832181
 31
0.0
  0
LINE
  5
270
  8
0
  6
CONTINUOUS
 62
     7
 10
142.8232274537
 20
122.3453832181
 30
0.0
 11
142.9690012722
 21
119.640383369
 31
0.0
  0
LINE
  5
271
  8
0
  6
CONTINUOUS
 62
     7
 10
113.4005142885
 20
106.6744295117
 30
0.0
 11
141.6847855359
 21
123.0025917481
 31
0.0
  0
LINE
  5
272
  8
0
  6
CONTINUOUS
 62
     7
 10
141.6847855359
 20
123.0025917481
 30
0.0
 11
142.8232274537
 21
122.3453832181
 31
0.0
  0
LINE
  5
273
  8
0
  6
CONTINUOUS
 62
     7
 10
111.1320925268
 20
105.3392463845
 30
0.0
 11
113.3989896397
 21
106.6478982324
 31
0.0
  0
LINE
  5
274
  8
0
  6
CONTINUOUS
 62
     7
 10
110.9849780643
 20
108.0691234147
 30
0.0
 11
139.2692493118
 21
124.3972856511
 31
0.0
  0
LINE
  5
275
  8
0
  6
CONTINUOUS
 62
     7
 10
139.2692493118
 20
124.3972856511
 30
0.0
 11
139.4150231303
 21
121.692285802
 31
0.0
  0
LINE
  5
276
  8
0
  6
CONTINUOUS
 62
     7
 10
109.8465361466
 20
108.7263319447
 30
0.0
 11
138.1308073941
 21
125.0544941811
 31
0.0
  0
LINE
  5
277
  8
0
  6
CONTINUOUS
 62
     7
 10
138.1308073941
 20
125.0544941811
 30
0.0
 11
139.2692493118
 21
124.3972856511
 31
0.0
  0
LINE
  5
278
  8
0
  6
CONTINUOUS
 62
     7
 10
107.5781143849
 20
107.3911488175
 30
0.0
 11
109.8450114978
 21
108.6998006654
 31
0.0
  0
LINE
  5
279
  8
0
  6
CONTINUOUS
 62
     7
 10
107.4309999224
 20
110.1210258477
 30
0.0
 11
135.7152711699
 21
126.4491880841
 31
0.0
  0
LINE
  5
27A
  8
0
  6
CONTINUOUS
 62
     7
 10
135.7152711699
 20
126.4491880841
 30
0.0
 11
135.8610449884
 21
123.744188235
 31
0.0
  0
LINE
  5
27B
  8
0
  6
CONTINUOUS
 62
     7
 10
106.2925580047
 20
110.7782343777
 30
0.0
 11
134.5768292522
 21
127.1063966142
 31
0.0
  0
LINE
  5
27C
  8
0
  6
CONTINUOUS
 62
     7
 10
134.5768292522
 20
127.1063966142
 30
0.0
 11
135.7152711699
 21
126.4491880841
 31
0.0
  0
LINE
  5
27D
  8
0
  6
CONTINUOUS
 62
     7
 10
104.024136243
 20
109.4430512506
 30
0.0
 11
106.2910333559
 21
110.7517030984
 31
0.0
  0
LINE
  5
27E
  8
0
  6
CONTINUOUS
 62
     7
 10
103.8770217805
 20
112.1729282807
 30
0.0
 11
132.161293028
 21
128.5010905172
 31
0.0
  0
LINE
  5
27F
  8
0
  6
CONTINUOUS
 62
     7
 10
132.161293028
 20
128.5010905172
 30
0.0
 11
132.3070668465
 21
125.796090668
 31
0.0
  0
LINE
  5
280
  8
0
  6
CONTINUOUS
 62
     7
 10
102.7385798628
 20
112.8301368107
 30
0.0
 11
131.0228511103
 21
129.1582990472
 31
0.0
  0
LINE
  5
281
  8
0
  6
CONTINUOUS
 62
     7
 10
131.0228511103
 20
129.1582990472
 30
0.0
 11
132.161293028
 21
128.5010905172
 31
0.0
  0
LINE
  5
282
  8
0
  6
CONTINUOUS
 62
     7
 10
100.4701581011
 20
111.4949536836
 30
0.0
 11
102.737055214
 21
112.8036055314
 31
0.0
  0
LINE
  5
283
  8
0
  6
CONTINUOUS
 62
     7
 10
100.3230436386
 20
114.2248307137
 30
0.0
 11
128.6073148861
 21
130.5529929502
 31
0.0
  0
LINE
  5
284
  8
0
  6
CONTINUOUS
 62
     7
 10
128.6073148861
 20
130.5529929502
 30
0.0
 11
128.7530887046
 21
127.847993101
 31
0.0
  0
LINE
  5
285
  8
0
  6
CONTINUOUS
 62
     7
 10
99.1846017209
 20
114.8820392437
 30
0.0
 11
127.4688729684
 21
131.2102014802
 31
0.0
  0
LINE
  5
286
  8
0
  6
CONTINUOUS
 62
     7
 10
127.4688729684
 20
131.2102014802
 30
0.0
 11
128.6073148861
 21
130.5529929502
 31
0.0
  0
LINE
  5
287
  8
0
  6
CONTINUOUS
 62
     7
 10
96.9161799592
 20
113.5468561166
 30
0.0
 11
99.1830770721
 21
114.8555079644
 31
0.0
  0
LINE
  5
288
  8
0
  6
CONTINUOUS
 62
     7
 10
96.7690654967
 20
116.2767331467
 30
0.0
 11
125.0533367442
 21
132.6048953832
 31
0.0
  0
LINE
  5
289
  8
0
  6
CONTINUOUS
 62
     7
 10
125.0533367442
 20
132.6048953832
 30
0.0
 11
125.1991105627
 21
129.8998955341
 31
0.0
  0
LINE
  5
28A
  8
0
  6
CONTINUOUS
 62
     7
 10
95.630623579
 20
116.9339416767
 30
0.0
 11
123.9148948265
 21
133.2621039132
 31
0.0
  0
LINE
  5
28B
  8
0
  6
CONTINUOUS
 62
     7
 10
123.9148948265
 20
133.2621039132
 30
0.0
 11
125.0533367442
 21
132.6048953832
 31
0.0
  0
LINE
  5
28C
  8
0
  6
CONTINUOUS
 62
     7
 10
93.3622018173
 20
115.5987585496
 30
0.0
 11
95.6290989302
 21
116.9074103974
 31
0.0
  0
LINE
  5
28D
  8
0
  6
CONTINUOUS
 62
     7
 10
93.2150873548
 20
118.3286355797
 30
0.0
 11
121.4993586023
 21
134.6567978162
 31
0.0
  0
LINE
  5
28E
  8
0
  6
CONTINUOUS
 62
     7
 10
121.4993586023
 20
134.6567978162
 30
0.0
 11
121.6451324208
 21
131.9517979671
 31
0.0
  0
LINE
  5
28F
  8
0
  6
CONTINUOUS
 62
     7
 10
92.0766454371
 20
118.9858441097
 30
0.0
 11
120.3609166846
 21
135.3140063462
 31
0.0
  0
LINE
  5
290
  8
0
  6
CONTINUOUS
 62
     7
 10
120.3609166846
 20
135.3140063462
 30
0.0
 11
121.4993586023
 21
134.6567978162
 31
0.0
  0
LINE
  5
291
  8
0
  6
CONTINUOUS
 62
     7
 10
89.8082236754
 20
117.6506609826
 30
0.0
 11
92.0751207883
 21
118.9593128304
 31
0.0
  0
LINE
  5
292
  8
0
  6
CONTINUOUS
 62
     7
 10
89.6611092129
 20
120.3805380127
 30
0.0
 11
117.9453804604
 21
136.7087002492
 31
0.0
  0
LINE
  5
293
  8
0
  6
CONTINUOUS
 62
     7
 10
117.9453804604
 20
136.7087002492
 30
0.0
 11
118.091154279
 21
134.0037004001
 31
0.0
  0
LINE
  5
294
  8
0
  6
CONTINUOUS
 62
     7
 10
88.5226672952
 20
121.0377465428
 30
0.0
 11
116.8069385427
 21
137.3659087792
 31
0.0
  0
LINE
  5
295
  8
0
  6
CONTINUOUS
 62
     7
 10
116.8069385427
 20
137.3659087792
 30
0.0
 11
117.9453804604
 21
136.7087002492
 31
0.0
  0
LINE
  5
296
  8
0
  6
CONTINUOUS
 62
     7
 10
86.2542455335
 20
119.7025634156
 30
0.0
 11
88.5211426464
 21
121.0112152635
 31
0.0
  0
LINE
  5
297
  8
0
  6
CONTINUOUS
 62
     7
 10
86.1071310711
 20
122.4324404458
 30
0.0
 11
114.3914023185
 21
138.7606026822
 31
0.0
  0
LINE
  5
298
  8
0
  6
CONTINUOUS
 62
     7
 10
114.3914023185
 20
138.7606026822
 30
0.0
 11
114.5371761371
 21
136.0556028331
 31
0.0
  0
LINE
  5
299
  8
0
  6
CONTINUOUS
 62
     7
 10
84.9686891533
 20
123.0896489758
 30
0.0
 11
113.2529604008
 21
139.4178112122
 31
0.0
  0
LINE
  5
29A
  8
0
  6
CONTINUOUS
 62
     7
 10
113.2529604008
 20
139.4178112122
 30
0.0
 11
114.3914023185
 21
138.7606026822
 31
0.0
  0
LINE
  5
29B
  8
0
  6
CONTINUOUS
 62
     7
 10
82.7111186219
 20
121.9432942671
 30
0.0
 11
110.9953898694
 21
138.2714565035
 31
0.0
  0
LINE
  5
29C
  8
0
  6
CONTINUOUS
 62
     7
 10
110.9953898694
 20
138.2714565035
 30
0.0
 11
111.131295255
 21
138.1929999944
 31
0.0
  0
LINE
  5
29D
  8
0
  6
CONTINUOUS
 62
     7
 10
82.574868434
 20
124.471572262
 30
0.0
 11
110.8591396815
 21
140.7997344984
 31
0.0
  0
LINE
  5
29E
  8
0
  6
CONTINUOUS
 62
     7
 10
110.8591396815
 20
140.7997344984
 30
0.0
 11
110.9953898694
 21
138.2714565035
 31
0.0
  0
LINE
  5
29F
  8
0
  6
CONTINUOUS
 62
     7
 10
82.0021119413
 20
124.8022175473
 30
0.0
 11
110.2863831887
 21
141.1303797837
 31
0.0
  0
LINE
  5
2A0
  8
0
  6
CONTINUOUS
 62
     7
 10
110.2863831887
 20
141.1303797837
 30
0.0
 11
110.8591396815
 21
140.7997344984
 31
0.0
  0
ENDSEC
  0
EOF
